Tags
Language
Tags

Shoujo Kageki Revue Starlight (2018)

Posted By: Lebedev30
1080p (FullHD) / WEBRip IMDb
Shoujo Kageki Revue Starlight (2018)

Shoujo Kageki Revue Starlight (2018)
WEBRip | MKV | 1920x1080 | H264@1763 Kbps | 12x ~ 25mn | 12x ~340 Mb
日本語 AAC@159 Kbps | 2 channels | Subtitles: English, Español, Português
Genre: action, performance, school life, swordplay, the arts


Description:
Starlight is a song and dance revue troupe loved throughout the world. Karen and Hikari make a promise with each other when they're young that one day they'll stand on that stage together. Time passes, and now the girls are 16 years old. Karen is very enthusiastic about the lessons she takes every day, holding her promise close to her heart. Hikari has transferred schools and is now away from Karen. But the cogs of fate turn, and the two are destined to meet again. The girls and other Stage Girls will compete in a mysterious audition process to gain acceptance into the revue.






01. Stage Girls
02. The Stage of Fate
03. Top Star
04. Promise Tower
05. Is "Shine" Even Possible?
06. Stage Left for Two
07. Nana Daiba
08. Toward the Light
09. On the Night of the Star Festival
10. The Show Must Go On
11. We Are
12. Revue Starlight


General
Format : Matroska
Format version : Version 4 / Version 2
File size : 342 MiB
Duration : 24 min 50 s
Overall bit rate : 1 925 kb/s
Encoded date : UTC 2018-07-19 00:35:06
Writing application : mkvmerge v23.0.0 ('The Bride Said No') 32-bit
Writing library : libebml v1.3.6 + libmatroska v1.4.9

Video
ID : 4
Format : AVC
Format/Info : Advanced Video Codec
Format profile : High@L4.1
Format settings : CABAC / 4 Ref Frames
Format settings, CABAC : Yes
Format settings, RefFrames : 4 frames
Codec ID : V_MPEG4/ISO/AVC
Duration : 24 min 50 s
Bit rate : 1 763 kb/s
Width : 1 920 pixels
Height : 1 080 pixels
Display aspect ratio : 16:9
Frame rate mode : Constant
Frame rate : 23.976 (24000/1001) FPS
Color space : YUV
Chroma subsampling : 4:2:0
Bit depth : 8 bits
Scan type : Progressive
Bits/(Pixel*Frame) : 0.035
Stream size : 313 MiB (92%)
Writing library : x264 core 148
Encoding settings : cabac=1 / ref=3 / deblock=1:0:0 / analyse=0x3:0x113 / me=hex / subme=7 / psy=1 / psy_rd=1.00:0.00 / mixed_ref=1 / me_range=16 / chroma_me=1 / trellis=1 / 8x8dct=1 / cqm=0 / deadzone=21,11 / fast_pskip=1 / chroma_qp_offset=-2 / threads=34 / lookahead_threads=5 / sliced_threads=0 / nr=0 / decimate=1 / interlaced=0 / bluray_compat=0 / constrained_intra=0 / bframes=3 / b_pyramid=2 / b_adapt=1 / b_bias=0 / direct=1 / weightb=1 / open_gop=0 / weightp=2 / keyint=90 / keyint_min=9 / scenecut=0 / intra_refresh=0 / rc_lookahead=40 / rc=crf / mbtree=1 / crf=22.0 / qcomp=0.60 / qpmin=0 / qpmax=69 / qpstep=4 / vbv_maxrate=13500 / vbv_bufsize=135000 / crf_max=0.0 / nal_hrd=none / filler=0 / ip_ratio=1.40 / aq=1:1.00
Default : Yes
Forced : No

Audio
ID : 5
Format : AAC
Format/Info : Advanced Audio Codec
Format profile : LC
Codec ID : A_AAC-2
Duration : 24 min 50 s
Bit rate : 159 kb/s
Channel(s) : 2 channels
Channel positions : Front: L R
Sampling rate : 48.0 kHz
Frame rate : 46.875 FPS (1024 SPF)
Compression mode : Lossy
Delay relative to video : -43 ms
Stream size : 28.3 MiB (8%)
Default : Yes
Forced : No

Text #1
ID : 1
Format : ASS
Codec ID : S_TEXT/ASS
Codec ID/Info : Advanced Sub Station Alpha
Duration : 24 min 0 s
Bit rate : 110 b/s
Count of elements : 344
Compression mode : Lossless
Stream size : 19.4 KiB (0%)
Language : English
Default : Yes
Forced : No

Text #2
ID : 2
Format : ASS
Codec ID : S_TEXT/ASS
Codec ID/Info : Advanced Sub Station Alpha
Duration : 24 min 0 s
Bit rate : 109 b/s
Count of elements : 342
Compression mode : Lossless
Stream size : 19.3 KiB (0%)
Language : Portuguese
Default : No
Forced : No

Text #3
ID : 3
Format : ASS
Codec ID : S_TEXT/ASS
Codec ID/Info : Advanced Sub Station Alpha
Duration : 24 min 0 s
Bit rate : 107 b/s
Count of elements : 341
Compression mode : Lossless
Stream size : 19.0 KiB (0%)
Language : Spanish
Default : No
Forced : No


Screenshots

Shoujo Kageki Revue Starlight (2018)

Shoujo Kageki Revue Starlight (2018)

Shoujo Kageki Revue Starlight (2018)


My publications | Rss Channel