Tags
Language
Tags

Shuumatsu Nani Shitemasuka? Isogashii Desuka? Sukutte Moratte Ii Desuka? (2017)

Posted By: Lebedev30
1080p (FullHD) / WEBRip IMDb
Shuumatsu Nani Shitemasuka? Isogashii Desuka? Sukutte Moratte Ii Desuka? (2017)

Shuumatsu Nani Shitemasuka? Isogashii Desuka? Sukutte Moratte Ii Desuka? (2017)
WEBRip | MKV | 1920x1080 | H264@4697 Kbps | 12x ~ 25mn | 12x ~800 Mb
日本語 AAC@126 Kbps | 2 channels | Subtitles: العربية, English, Español, Português, Italiano, Deutsch, Français
Genre: fantasy, magic, romance, seinen, tragedy


Description:
* Based on light novel series written by Kareno Akira and illustrated by Ue.

500 years have passed since the human race went extinct at the hands of invading beasts. The surviving races escaped into the floating islands in the sky, out of reach of the vicious monsters.

In such a setting, warrior Willem wakes up from a long, cursed slumber and finds himself to be the only human alive. He adapts to his new life and settles into a routine of odd jobs.

One day, he accepts a job offer to become an Enchanted Weapons Technician, but little does he know, these 'weapons' are actually a young group of girls from the Leprechaun race. As the only race compatible with the ancient weapons of the human race, the Leprechauns are utilized to secretly fight against the beasts who have made it into the sky. Willem becomes the caretaker of these girls and foster a familial connection. Now, Willem suddenly finds himself in a position which he was never in before as a warrior. He struggles with himself as he painfully and helplessly waits for his loved ones to come home from battle.






01. Broken Chronograph
02. Late Autumn Night`s Dream
03. Starry Road to Tomorrow
04. Dice in Pot
05. From Dawn Till Dusk
06. No News Was Good News
07. Home, Sweet Home
08. Slight Light, Slight Hope
09. Moonlit Sorcery
10. My Happiness
11. Evidence of Existence
12. Chtholly


General
Format : Matroska
Format version : Version 4 / Version 2
File size : 834 MiB
Duration : 24 min 10 s
Overall bit rate : 4 824 kb/s
Encoded date : UTC 2017-05-25 03:23:11
Writing application : mkvmerge v10.0.0 ('To Drown In You') 64bit
Writing library : libebml v1.3.4 + libmatroska v1.4.5

Video
ID : 1
Format : AVC
Format/Info : Advanced Video Codec
Format profile : High@L4
Format settings : CABAC / 4 Ref Frames
Format settings, CABAC : Yes
Format settings, RefFrames : 4 frames
Codec ID : V_MPEG4/ISO/AVC
Duration : 24 min 9 s
Bit rate : 4 697 kb/s
Width : 1 920 pixels
Height : 1 080 pixels
Display aspect ratio : 16:9
Frame rate mode : Constant
Frame rate : 23.976 (24000/1001) FPS
Color space : YUV
Chroma subsampling : 4:2:0
Bit depth : 8 bits
Scan type : Progressive
Bits/(Pixel*Frame) : 0.094
Stream size : 812 MiB (97%)
Writing library : x264 core 142
Encoding settings : cabac=1 / ref=4 / deblock=1:1:1 / analyse=0x3:0x113 / me=umh / subme=8 / psy=1 / psy_rd=0.40:0.00 / mixed_ref=1 / me_range=16 / chroma_me=1 / trellis=1 / 8x8dct=1 / cqm=0 / deadzone=21,11 / fast_pskip=1 / chroma_qp_offset=-2 / threads=12 / lookahead_threads=2 / sliced_threads=0 / nr=0 / decimate=1 / interlaced=0 / bluray_compat=0 / constrained_intra=0 / bframes=3 / b_pyramid=2 / b_adapt=2 / b_bias=0 / direct=3 / weightb=1 / open_gop=0 / weightp=2 / keyint=48 / keyint_min=24 / scenecut=40 / intra_refresh=0 / rc_lookahead=48 / rc=crf / mbtree=1 / crf=15.0 / qcomp=0.60 / qpmin=0 / qpmax=69 / qpstep=4 / vbv_maxrate=8000 / vbv_bufsize=12000 / crf_max=0.0 / nal_hrd=none / filler=0 / ip_ratio=1.40 / aq=1:0.60
Language : Japanese
Default : Yes
Forced : No

Audio
ID : 2
Format : AAC
Format/Info : Advanced Audio Codec
Format profile : LC
Codec ID : A_AAC-2
Duration : 24 min 9 s
Bit rate : 126 kb/s
Channel(s) : 2 channels
Channel positions : Front: L R
Sampling rate : 44.1 kHz
Frame rate : 43.066 FPS (1024 SPF)
Compression mode : Lossy
Delay relative to video : -83 ms
Stream size : 21.7 MiB (3%)
Language : Japanese
Default : Yes
Forced : No

Text #1
ID : 3
Format : ASS
Codec ID : S_TEXT/ASS
Codec ID/Info : Advanced Sub Station Alpha
Duration : 24 min 6 s
Bit rate : 139 b/s
Count of elements : 388
Compression mode : Lossless
Stream size : 24.7 KiB (0%)
Title : Deutsch
Default : No
Forced : No

Text #2
ID : 4
Format : ASS
Codec ID : S_TEXT/ASS
Codec ID/Info : Advanced Sub Station Alpha
Duration : 24 min 6 s
Bit rate : 140 b/s
Count of elements : 393
Compression mode : Lossless
Stream size : 24.8 KiB (0%)
Title : English
Default : Yes
Forced : No

Text #3
ID : 5
Format : ASS
Codec ID : S_TEXT/ASS
Codec ID/Info : Advanced Sub Station Alpha
Duration : 24 min 6 s
Bit rate : 125 b/s
Count of elements : 389
Compression mode : Lossless
Stream size : 22.1 KiB (0%)
Title : Español (España)
Default : No
Forced : No

Text #4
ID : 6
Format : ASS
Codec ID : S_TEXT/ASS
Codec ID/Info : Advanced Sub Station Alpha
Duration : 24 min 6 s
Bit rate : 124 b/s
Count of elements : 389
Compression mode : Lossless
Stream size : 22.0 KiB (0%)
Title : Español
Default : No
Forced : No

Text #5
ID : 7
Format : ASS
Codec ID : S_TEXT/ASS
Codec ID/Info : Advanced Sub Station Alpha
Duration : 24 min 6 s
Bit rate : 141 b/s
Count of elements : 339
Compression mode : Lossless
Stream size : 25.0 KiB (0%)
Title : Français (France)
Default : No
Forced : No

Text #6
ID : 8
Format : ASS
Codec ID : S_TEXT/ASS
Codec ID/Info : Advanced Sub Station Alpha
Duration : 24 min 6 s
Bit rate : 153 b/s
Count of elements : 428
Compression mode : Lossless
Stream size : 27.2 KiB (0%)
Title : Italiano
Default : No
Forced : No

Text #7
ID : 9
Format : ASS
Codec ID : S_TEXT/ASS
Codec ID/Info : Advanced Sub Station Alpha
Duration : 24 min 6 s
Bit rate : 135 b/s
Count of elements : 395
Compression mode : Lossless
Stream size : 23.8 KiB (0%)
Title : Português (Brazil)
Default : No
Forced : No

Text #8
ID : 10
Format : ASS
Codec ID : S_TEXT/ASS
Codec ID/Info : Advanced Sub Station Alpha
Duration : 24 min 6 s
Bit rate : 174 b/s
Count of elements : 398
Compression mode : Lossless
Stream size : 30.9 KiB (0%)
Title : العربية (Arabic)
Default : No
Forced : No


Screenshots

Shuumatsu Nani Shitemasuka? Isogashii Desuka? Sukutte Moratte Ii Desuka? (2017)

Shuumatsu Nani Shitemasuka? Isogashii Desuka? Sukutte Moratte Ii Desuka? (2017)

Shuumatsu Nani Shitemasuka? Isogashii Desuka? Sukutte Moratte Ii Desuka? (2017)


My publications | Rss Channel