Tags
Language
Tags

Sora to Umi no Aida (2018)

Posted By: Lebedev30
1080p (FullHD) / WEBRip IMDb
Sora to Umi no Aida (2018)

Sora to Umi no Aida (2018)
WEBRip | MKV | 1920x1080 | H264@5838 Kbps | 12x ~ 25mn | 12x ~900 Mb
日本語 AAC@128 Kbps | 2 channels | Subtitles: العربية, English, Español, Português, Русский, Italiano, Deutsch, Français
Genre: comedy


Description:
In the future in Onomichi, Hiroshima fish disappear from the sea around the world and only whales live in the ocean. The Ministry of Fishery decides to set up giant experimental Universe Fish Tanks in space. The Onomichi Universe Fishery Union is established and begins to train space fishermen. Female fishermen are in demand due to the strengthening of an equal employment law for men and women. Six new female space fishermen are selected, and the story centers on supporting their growth.






01. Gonna Fish in Space!
02. The Girls` Squad Gathers!
03. Ruby`s a Spy, Okay?!
04. Shall We All Hit the Beach?
05. Give Me Strength!
06. Ramune, Secrets, and Brothers
07. I`m the Leader!
08. Between Haru and Namino
09. A Fuper Sun Summer Break in Yukatas!
10. Records and Remembrance
11. Take to the Skies with a Smile!
12. Between the Sky and Sea


General
Format : Matroska
Format version : Version 4 / Version 2
File size : 1 011 MiB
Duration : 23 min 40 s
Overall bit rate : 5 970 kb/s
Encoded date : UTC 2018-10-03 16:10:33
Writing application : mkvmerge v26.0.0 ('In The Game') 64-bit
Writing library : libebml v1.3.6 + libmatroska v1.4.9

Video
ID : 1
Format : AVC
Format/Info : Advanced Video Codec
Format profile : High@L4
Format settings : CABAC / 4 Ref Frames
Format settings, CABAC : Yes
Format settings, RefFrames : 4 frames
Codec ID : V_MPEG4/ISO/AVC
Duration : 23 min 40 s
Bit rate : 5 838 kb/s
Width : 1 920 pixels
Height : 1 080 pixels
Display aspect ratio : 16:9
Frame rate mode : Constant
Frame rate : 23.976 (24000/1001) FPS
Color space : YUV
Chroma subsampling : 4:2:0
Bit depth : 8 bits
Scan type : Progressive
Bits/(Pixel*Frame) : 0.117
Stream size : 988 MiB (98%)
Writing library : x264 core 142
Encoding settings : cabac=1 / ref=4 / deblock=1:1:1 / analyse=0x3:0x113 / me=umh / subme=8 / psy=1 / psy_rd=0.40:0.00 / mixed_ref=1 / me_range=16 / chroma_me=1 / trellis=1 / 8x8dct=1 / cqm=0 / deadzone=21,11 / fast_pskip=1 / chroma_qp_offset=-2 / threads=12 / lookahead_threads=2 / sliced_threads=0 / nr=0 / decimate=1 / interlaced=0 / bluray_compat=0 / constrained_intra=0 / bframes=3 / b_pyramid=2 / b_adapt=2 / b_bias=0 / direct=3 / weightb=1 / open_gop=0 / weightp=2 / keyint=48 / keyint_min=25 / scenecut=0 / intra_refresh=0 / rc_lookahead=48 / rc=crf / mbtree=1 / crf=15.0 / qcomp=0.60 / qpmin=0 / qpmax=69 / qpstep=4 / vbv_maxrate=8000 / vbv_bufsize=12000 / crf_max=0.0 / nal_hrd=none / filler=0 / ip_ratio=1.40 / aq=1:0.60
Default : Yes
Forced : No

Audio
ID : 2
Format : AAC
Format/Info : Advanced Audio Codec
Format profile : LC
Codec ID : A_AAC-2
Duration : 23 min 40 s
Bit rate : 128 kb/s
Channel(s) : 2 channels
Channel positions : Front: L R
Sampling rate : 44.1 kHz
Frame rate : 43.066 FPS (1024 SPF)
Compression mode : Lossy
Delay relative to video : -83 ms
Stream size : 21.7 MiB (2%)
Default : Yes
Forced : No

Text #1
ID : 3
Format : ASS
Codec ID : S_TEXT/ASS
Codec ID/Info : Advanced Sub Station Alpha
Duration : 23 min 38 s
Bit rate : 146 b/s
Count of elements : 421
Compression mode : Lossless
Stream size : 25.5 KiB (0%)
Title : English(US)
Language : English
Default : Yes
Forced : No

Text #2
ID : 4
Format : ASS
Codec ID : S_TEXT/ASS
Codec ID/Info : Advanced Sub Station Alpha
Duration : 23 min 38 s
Bit rate : 184 b/s
Count of elements : 421
Compression mode : Lossless
Stream size : 32.0 KiB (0%)
Title : Arabic
Language : Arabic
Default : No
Forced : No

Text #3
ID : 5
Format : ASS
Codec ID : S_TEXT/ASS
Codec ID/Info : Advanced Sub Station Alpha
Duration : 23 min 37 s
Bit rate : 146 b/s
Count of elements : 380
Compression mode : Lossless
Stream size : 25.3 KiB (0%)
Title : Francais(France)
Language : French
Default : No
Forced : No

Text #4
ID : 6
Format : ASS
Codec ID : S_TEXT/ASS
Codec ID/Info : Advanced Sub Station Alpha
Duration : 23 min 38 s
Bit rate : 152 b/s
Count of elements : 443
Compression mode : Lossless
Stream size : 26.4 KiB (0%)
Title : Deutsch
Language : German
Default : No
Forced : No

Text #5
ID : 7
Format : ASS
Codec ID : S_TEXT/ASS
Codec ID/Info : Advanced Sub Station Alpha
Duration : 23 min 38 s
Bit rate : 154 b/s
Count of elements : 413
Compression mode : Lossless
Stream size : 26.8 KiB (0%)
Title : Italiano
Language : Italian
Default : No
Forced : No

Text #6
ID : 8
Format : ASS
Codec ID : S_TEXT/ASS
Codec ID/Info : Advanced Sub Station Alpha
Duration : 23 min 38 s
Bit rate : 131 b/s
Count of elements : 369
Compression mode : Lossless
Stream size : 22.7 KiB (0%)
Title : Espanol(Espana)
Language : Spanish
Default : No
Forced : No

Text #7
ID : 9
Format : ASS
Codec ID : S_TEXT/ASS
Codec ID/Info : Advanced Sub Station Alpha
Duration : 23 min 38 s
Bit rate : 132 b/s
Count of elements : 369
Compression mode : Lossless
Stream size : 23.0 KiB (0%)
Title : Espanol
Language : Spanish
Default : No
Forced : No

Text #8
ID : 10
Format : ASS
Codec ID : S_TEXT/ASS
Codec ID/Info : Advanced Sub Station Alpha
Duration : 23 min 38 s
Bit rate : 137 b/s
Count of elements : 396
Compression mode : Lossless
Stream size : 23.9 KiB (0%)
Title : Portugues(Brasil)
Language : Portuguese
Default : No
Forced : No

Text #9
ID : 11
Format : ASS
Codec ID : S_TEXT/ASS
Codec ID/Info : Advanced Sub Station Alpha
Duration : 23 min 38 s
Bit rate : 215 b/s
Count of elements : 430
Compression mode : Lossless
Stream size : 37.4 KiB (0%)
Title : Russian
Language : Russian
Default : No
Forced : No


Screenshots

Sora to Umi no Aida (2018)

Sora to Umi no Aida (2018)

Sora to Umi no Aida (2018)


My publications | Rss Channel