Tags
Language
Tags

Jazz Cigano Quinteto - Jazz Cigano Quinteto e Yamandu Costa (2022)

Posted By: v3122
Jazz Cigano Quinteto - Jazz Cigano Quinteto e Yamandu Costa (2022)

Jazz Cigano Quinteto - Jazz Cigano Quinteto e Yamandu Costa (2022)
FLAC (Tracks) 24-bit/44.1 kHz | Official Digital Download | Time: 00:45:46
Jazz | Jazz Cigano Quinteto | ~ 576 Mb

“Jazz Cigano Quinteto e Yamandu Costa” conquered an ocean of distance to be produced (Yamandu Costa lives in Portugal) and brings together compositions from the quintet and the guitarist. “In jazz, the only arrangements that exist are how it's going to start and how it's going to end. Our biggest challenge was to stop and think about what was going to happen in this music scene”, says Vinicius Araújo, guitarist for Jazz Cigano. That's because the distance could interfere in the improvisation, in the unarranged part of the music. But the end result satisfied everyone involved.
Jazz Cigano Quinteto - Jazz Cigano Quinteto e Yamandu Costa (2022):

Tracklist:

01 - Arabiando (00:03:58)
02 - Cadência (00:04:09)
03 - Um Choro pro Waldir (00:05:35)
04 - Bolero Negro (00:05:13)
05 - Nuages (00:03:55)
06 - Mirandão (00:03:10)
07 - Nunca (00:03:58)
08 - Dandy (00:03:50)
09 - Bennert Ballad (00:04:36)
10 - Mistura e Manda (00:03:18)
11 - Coração Leviano (00:03:59)

foobar2000 1.4.2 / Dynamic Range Meter 1.1.1
log date: 2022-08-03 08:34:40

––––––––––––––––––––––––––––––––––––––––
Analyzed: Jazz Cigano Quinteto / Jazz Cigano Quinteto E Yamandu Costa
––––––––––––––––––––––––––––––––––––––––

DR Peak RMS Duration Track
––––––––––––––––––––––––––––––––––––––––
DR8 -0.96 dB -10.97 dB 3:58 01-Arabiando
DR9 -0.96 dB -11.82 dB 4:09 02-CadГЄncia
DR9 -0.96 dB -11.74 dB 5:35 03-Um Choro pro Waldir
DR8 -0.96 dB -10.58 dB 5:13 04-Bolero Negro
DR8 -0.96 dB -10.94 dB 3:55 05-Nuages
DR8 -0.96 dB -10.74 dB 3:10 06-MirandГЈo
DR9 -0.96 dB -12.40 dB 3:59 07-Nunca
DR9 -0.96 dB -11.36 dB 3:51 08-Dandy
DR9 -0.96 dB -13.17 dB 4:37 09-Bennert Ballad
DR9 -0.96 dB -11.62 dB 3:19 10-Mistura e Manda
DR9 -0.96 dB -11.65 dB 3:59 11-Coração Leviano
––––––––––––––––––––––––––––––––––––––––

Number of tracks: 11
Official DR value: DR9

Samplerate: 96000 Hz
Channels: 2
Bits per sample: 24
Bitrate: 1431 kbps
Codec: FLAC

All thanks go to the original releaser

Download Jazz Cigano Quinteto - Jazz Cigano Quinteto e Yamandu Costa (2022):