Ray Conniff - The Ray Conniff Hi Fi Companion (1958/2020) [Official Digital Download 24/96]

Posted By: pyatak
Ray Conniff - The Ray Conniff Hi Fi Companion (1958/2020) [Official Digital Download 24/96]

Ray Conniff - The Ray Conniff Hi Fi Companion (1958/2020) [Official Digital Download 24/96]
FLAC (tracks) 24-bit/96 kHz | Front Cover | Time - 68:28 minutes | 1,1 GB
Jazz | Label: RevOla, Official Digital Download

Originally released as a double album in 1958, “Hi-Fi Companion” is a perfect little mid-century time capsule, a hip, swinging, urban, yet reassuring showcase of vintage Conniff and his inimitable arrangements of some of the most popular songs of the era.

TRACKLIST

1. Ray Conniff - You Do Something To Me (Remastered)
2. Ray Conniff - They Can't Take That Away From Me (Remastered)
3. Ray Conniff - Hello Young Lovers (Remastered)
4. Ray Conniff - Where Or When? (Remastered)
5. Ray Conniff - All The Things You Are (Remastered)
6. Ray Conniff - People Will Say We're In Love (Remastered)
7. Ray Conniff - On The Street Where You Live (Remastered)
8. Ray Conniff - Moonlight Serenade (Remastered)
9. Ray Conniff - The Way You Look Tonight (Remastered)
10. Ray Conniff - As Time Goes By (Remastered)
11. Ray Conniff - Smoke Gets In Your Eyes (Remastered)
12. Ray Conniff - Lullaby Of Birdland (Remastered)
13. Ray Conniff - Cheek To Cheek (Remastered)
14. Ray Conniff - Thanks For The Memory (Remastered)
15. Ray Conniff - Easy To Love (Remastered)
16. Ray Conniff - Laura (Remastered)
17. Ray Conniff - It Might As Well Be Spring (Remastered)
18. Ray Conniff - Warsaw Concerto (Remastered)
19. Ray Conniff - I Could Have Danced All Night (Remastered)
20. Ray Conniff - Liebestraum Improvisation (Remastered)
21. Ray Conniff - On Dance Of The Sugar-Plum Fairy (Remastered)
22. Ray Conniff - Young At Heart (Remastered)
23. Ray Conniff - In The Still Of The Night (Remastered)
24. Ray Conniff - I'll See You Again (Remastered)

foobar2000 1.6.2 / Dynamic Range Meter 1.1.1
log date: 2021-03-03 20:27:47

––––––––––––––––––––––––––––––––––––––––
Analyzed: Ray Conniff / The Ray Conniff Hi Fi Companion
––––––––––––––––––––––––––––––––––––––––

DR Peak RMS Duration Track
––––––––––––––––––––––––––––––––––––––––
DR11 0.00 dB -13.65 dB 2:47 01-You Do Something To Me (Remastered)
DR10 0.00 dB -13.91 dB 3:15 02-They Can't Take That Away From Me (Remastered)
DR11 -0.49 dB -17.51 dB 3:06 03-Hello Young Lovers (Remastered)
DR10 -0.04 dB -12.47 dB 3:31 04-Where Or When? (Remastered)
DR10 -0.42 dB -13.85 dB 2:36 05-All The Things You Are (Remastered)
DR11 0.00 dB -14.11 dB 3:01 06-People Will Say We're In Love (Remastered)
DR12 0.00 dB -16.13 dB 2:02 07-On The Street Where You Live (Remastered)
DR11 -0.29 dB -13.98 dB 3:00 08-Moonlight Serenade (Remastered)
DR11 -0.01 dB -13.92 dB 3:22 09-The Way You Look Tonight (Remastered)
DR10 -5.39 dB -19.33 dB 2:54 10-As Time Goes By (Remastered)
DR11 -0.14 dB -13.56 dB 2:46 11-Smoke Gets In Your Eyes (Remastered)
DR12 0.00 dB -15.50 dB 2:20 12-Lullaby Of Birdland (Remastered)
DR13 0.00 dB -18.15 dB 2:53 13-Cheek To Cheek (Remastered)
DR14 0.00 dB -18.69 dB 2:33 14-Thanks For The Memory (Remastered)
DR14 0.00 dB -17.02 dB 2:50 15-Easy To Love (Remastered)
DR12 0.00 dB -15.94 dB 3:10 16-Laura (Remastered)
DR13 -0.14 dB -17.14 dB 2:48 17-It Might As Well Be Spring (Remastered)
DR11 -1.48 dB -16.14 dB 3:02 18-Warsaw Concerto (Remastered)
DR11 -0.12 dB -14.39 dB 2:44 19-I Could Have Danced All Night (Remastered)
DR10 -0.23 dB -12.84 dB 2:43 20-Liebestraum Improvisation (Remastered)
DR11 -1.78 dB -15.80 dB 2:52 21-On Dance Of The Sugar-Plum Fairy (Remastered)
DR11 -0.23 dB -14.67 dB 2:34 22-Young At Heart (Remastered)
DR10 -0.37 dB -13.43 dB 3:13 23-In The Still Of The Night (Remastered)
DR10 -0.12 dB -13.70 dB 2:40 24-I'll See You Again (Remastered)
––––––––––––––––––––––––––––––––––––––––

Number of tracks: 24
Official DR value: DR11

Samplerate: 96000 Hz
Channels: 2
Bits per sample: 24
Bitrate: 2290 kbps
Codec: FLAC
================================================================================



Thanks to the Original customer.