Consider the Source - F**k It! We'll Do It Live - Volume 3: Improv Edition by Consider the Source (2020) [Of Digital Download]

Posted By: delpotro
Consider the Source - F**k It! We'll Do It Live - Volume 3: Improv Edition by Consider the Source (2020) [Of Digital Download]

Consider the Source - F**k It! We'll Do It Live - Volume 3: Improv Edition by Consider the Source (2020)
FLAC (tracks) 24-bit/44,1 kHz | Front Cover | Time - 61:30 minutes | 628 MB
Instrumental Rock, Fusion | Label: Consider the Source, Official Digital Download

Originally Streamed Live by Assorted Studios June 26, 2020. No songs, no rehearsed parts, no preconceived riffs, no overdubs, just 3 friends celebrating being able to make music in the same room together.

Tracklist:
1. John Talk (00:38)
2. Improv 1 (21:02)
3. Jeff Talk 1 (00:24)
4. Improv 2 (13:31)
5. Improv 3 (07:31)
6. Improv 4 (17:55)
7. Jeff Talk 2 (00:30)

foobar2000 1.4.1 / Dynamic Range Meter 1.1.1
log date: 2021-03-06 09:39:32

––––––––––––––––––––––––––––––––––––––––
Analyzed: Consider the Source / F**k It! We'll Do It Live - Volume 3: Improv Edition by Consider the Source
––––––––––––––––––––––––––––––––––––––––

DR Peak RMS Duration Track
––––––––––––––––––––––––––––––––––––––––
DR11 -6.85 dB -32.87 dB 0:38 01-Talk
DR12 0.00 dB -15.28 dB 21:02 02-Improv 1
DR15 -18.09 dB -37.36 dB 0:24 03-Talk 1
DR12 0.00 dB -14.73 dB 13:31 04-Improv 2
DR12 0.00 dB -15.25 dB 7:31 05-Improv 3
DR10 0.00 dB -14.86 dB 17:55 06-Improv 4
DR11 -10.91 dB -35.51 dB 0:30 07-Talk 2
––––––––––––––––––––––––––––––––––––––––

Number of tracks: 7
Official DR value: DR12

Samplerate: 44100 Hz
Channels: 2
Bits per sample: 24
Bitrate: 1056 kbps
Codec: FLAC
================================================================================


Thanks to the Original customer!