Dave Phillips - Disappear (2021) [Official Digital Download]

Posted By: delpotro
Dave Phillips - Disappear (2021) [Official Digital Download]

Dave Phillips - Disappear (2021)
FLAC (tracks) 24-bit/44,1 kHz | Front Cover | Time - 42:45 minutes | 512 MB
Experimental Electronic, Ambient | Label: Total Black, Official Digital Download

disappear was born of something that ceased to be, suddenly, unexpectedly, painfully. like two mirrors that reflected too strongly and burst. the shards that were left tell a story. of a trance meeting of an insect and a flower in a self-made paradise and the resulting journey that took them towards new dimensions but was brutally cut short before these could be explored. the sun disappeared. the resulting daze looked back and saw… mirrors don’t reflect what we want to see.

disappear consists of 7 pieces composed alongside a presence. the story linking the pieces unfolds when the presence disappears and the 8th, last piece of the album appears, a cleansing lament disguised as an abomination. marnować means waste in polish. composed between january 2018 and november 2019, a period also known as the berlin daze. mastered by riccardo mazza. edition of 300. released by total black. dedicated to agata.

Tracklist:
1. FFTTMTFO (08:00)
2. i hope you’re okay (05:32)
3. prevarication (01:26)
4. hope (without) (05:15)
5. s/laughter (02:33)
6. quo vadis? (mirror) (05:31)
7. de demonum fine comoedia (06:05)
8. marnować (08:26)

foobar2000 1.4.1 / Dynamic Range Meter 1.1.1
log date: 2021-02-25 09:13:40

––––––––––––––––––––––––––––––––––––––––
Analyzed: Dave Phillips / Disappear
––––––––––––––––––––––––––––––––––––––––

DR Peak RMS Duration Track
––––––––––––––––––––––––––––––––––––––––
DR6 -0.16 dB -9.38 dB 8:00 01-FFTTMTFO
DR6 -0.16 dB -9.39 dB 5:32 02-I Hope You're Okay
DR7 -0.16 dB -10.24 dB 1:26 03-Prevarication
DR6 -0.16 dB -8.38 dB 5:15 04-Hope (Without)
DR7 -0.16 dB -8.19 dB 2:33 05-S/Laughter
DR4 -0.16 dB -5.70 dB 5:31 06-Quo Vadis? (Mirror)
DR5 -0.16 dB -8.21 dB 6:05 07-De Demonum Fine Comoedia
DR5 -0.16 dB -7.68 dB 8:26 08-Marnować
––––––––––––––––––––––––––––––––––––––––

Number of tracks: 8
Official DR value: DR6

Samplerate: 44100 Hz
Channels: 2
Bits per sample: 24
Bitrate: 1712 kbps
Codec: FLAC
================================================================================


Thanks to the Original customer!