Emily A. Sprague - Water Memory / Mount Vision (2019) [Official Digital Download]

Posted By: delpotro
Emily A. Sprague - Water Memory / Mount Vision (2019) [Official Digital Download]

Emily A. Sprague - Water Memory / Mount Vision (2019)
FLAC (tracks) 24-bit/44,1 kHz | Front Cover | Time - 86:41 minutes | 776 MB
Experimental Electronic, Ambient | Label: RVNG Intl., Official Digital Download

Emily A. Sprague’s Water Memory and Mount Vision are presented in new and vivid detail. Through sound and poetry, Emily’s craft focuses on fleeting moments of crystalline clarity and meditates on expanded lifetimes of intricate meaning-making. Memory and vision, ocean and mountains, question and answer, emotions and infinity. Sunshine, lizard, sea salt. Previously issued as small editions of self-released cassettes, Emily’s two albums have been resequenced and mastered by Taylor Deupree, each including previously unheard tracks.

Tracklist:
1. Water Memory Poem (01:06)
2. A Lake (13:25)
3. Water Memory 1 (07:28)
4. Water Memory 2 (09:02)
5. Dock (03:15)
6. Your Pond (06:03)
7. Mount Vision Poem (00:40)
8. Synth 1 (07:22)
9. Piano 1 (07:23)
10. Synth 2 (07:40)
11. Huckleberry (03:03)
12. Synth 3 (04:58)
13. Piano 2 (Mount Vision) (03:41)
14. Outdoor (Bonus Track) (03:14)
15. Untitled (Bonus Track) (08:21)

foobar2000 1.4.1 / Dynamic Range Meter 1.1.1
log date: 2021-03-04 08:02:01

––––––––––––––––––––––––––––––––––––––––
Analyzed: Emily A. Sprague / Water Memory / Mount Vision
––––––––––––––––––––––––––––––––––––––––

DR Peak RMS Duration Track
––––––––––––––––––––––––––––––––––––––––
DR11 -2.63 dB -17.48 dB 1:06 01-Water Memory Poem
DR9 -0.29 dB -11.26 dB 13:25 02-A Lake
DR11 -0.54 dB -13.43 dB 7:28 03-Water Memory 1
DR9 -0.38 dB -11.90 dB 9:02 04-Water Memory 2
DR10 -0.51 dB -14.90 dB 3:15 05-Dock
DR9 -0.93 dB -12.51 dB 6:03 06-Your Pond
DR13 -5.19 dB -27.29 dB 0:40 07-Mount Vision Poem
DR9 -1.29 dB -11.66 dB 7:22 08-Synth 1
DR11 -0.52 dB -13.96 dB 7:23 09-Piano 1
DR10 -0.52 dB -12.12 dB 7:40 10-Synth 2
DR12 -0.51 dB -15.49 dB 3:03 11-Huckleberry
DR8 -0.52 dB -10.18 dB 4:58 12-Synth 3
DR13 -0.81 dB -16.08 dB 3:41 13-Piano 2 (Mount Vision)
DR12 -0.55 dB -15.85 dB 3:14 14-Outdoor (Bonus Track)
DR9 -0.52 dB -11.85 dB 8:21 15-Untitled (Bonus Track)
––––––––––––––––––––––––––––––––––––––––

Number of tracks: 15
Official DR value: DR10

Samplerate: 44100 Hz
Channels: 2
Bits per sample: 24
Bitrate: 1206 kbps
Codec: FLAC
================================================================================


Thanks to the Original customer!