Frank Zappa - Chunga's Revenge (1970/2021) [Official Digital Download 24/192]

Posted By: delpotro
Frank Zappa - Chunga's Revenge (1970/2021) [Official Digital Download 24/192]

Frank Zappa - Chunga's Revenge (1970/2021)
FLAC (tracks) 24-bit/192 kHz | Front Cover & Digital Booklet | Time - 40:27 minutes | 2 GB
Jazz Rock, Progressive Rock | Label: Zappa Records, Official Digital Download

Chunga's Revenge is the third solo album by Frank Zappa, released on October 23, 1970. Zappa's first effort of the 1970s marks the first appearance of former Turtles members Flo & Eddie on a Zappa record, and signals the dawn of a controversial epoch in Zappa's history. Chunga's Revenge represents a shift from both the satirical political commentary of his 1960s work with The Mothers of Invention, and the jazz fusion of Hot Rats.

Tracklist:
1. Transylvania Boogie (05:00)
2. Road Ladies (04:10)
3. Twenty Small Cigars (02:17)
4. The Nancy & Mary Music (09:30)
5. Tell Me You Love Me (02:33)
6. Would You Go All the Way? (02:29)
7. Chunga's Revenge (06:14)
8. The Clap (01:23)
9. Rudy Wants to Buy Yez a Drink (02:44)
10. Sharleena (04:02)

foobar2000 1.4.1 / Dynamic Range Meter 1.1.1
log date: 2021-03-26 14:13:19

––––––––––––––––––––––––––––––––––––––––
Analyzed: Frank Zappa / Chunga's Revenge
––––––––––––––––––––––––––––––––––––––––

DR Peak RMS Duration Track
––––––––––––––––––––––––––––––––––––––––
DR9 -0.25 dB -11.06 dB 5:00 01-Transylvania Boogie
DR8 -0.30 dB -10.91 dB 4:10 02-Road Ladies
DR10 -0.37 dB -12.96 dB 2:17 03-Twenty Small Cigars
DR9 -0.30 dB -12.13 dB 9:31 04-The Nancy & Mary Music
DR8 -0.30 dB -9.94 dB 2:34 05-Tell Me You Love Me
DR8 -0.30 dB -9.19 dB 2:30 06-Would You Go All The Way?
DR8 -0.30 dB -10.20 dB 6:15 07-Chunga's Revenge
DR10 -0.30 dB -12.07 dB 1:23 08-The Clap
DR8 -0.30 dB -10.73 dB 2:45 09-Rudy Wants To Buy Yez A Drink
DR8 -0.30 dB -10.45 dB 4:02 10-Sharleena
––––––––––––––––––––––––––––––––––––––––

Number of tracks: 10
Official DR value: DR9

Samplerate: 192000 Hz
Channels: 2
Bits per sample: 24
Bitrate: 7000 kbps
Codec: FLAC
================================================================================


Thanks to the Original customer!