Frank Zappa - Orchestral Favorites (40th Anniversary) (1979/2019/2021) [Official Digital Download 24/96]

Posted By: delpotro
Frank Zappa - Orchestral Favorites (40th Anniversary) (1979/2019/2021) [Official Digital Download 24/96]

Frank Zappa - Orchestral Favorites (40th Anniversary) (1979/2019/2021)
FLAC (tracks) 24-bit/96 kHz | Front Cover & Digital Booklet | Time - 151:31 minutes | 3,06 GB
Jazz Rock, Art Rock | Label: Zappa Records, Official Digital Download

Orchestral Favorites is an album by Frank Zappa first released in May 1979 on his own DiscReet Records label. The album is entirely instrumental and features music performed by the 37-piece Abnuceals Emuukha Electric Symphony Orchestra. It reached #168 on the Billboard 200 album chart in the United States.

Tracklist:
Disc 1 (41:09)
1. Strictly Genteel (Live at Royce Hall, 1975) (07:03)
2. Pedro's Dowry (Live at Royce Hall, 1975) (07:40)
3. Naval Aviation in Art? (Live at Royce Hall, 1975) (01:21)
4. Duke of Prunes (Live at Royce Hall, 1975) (04:19)
5. Bogus Pomp (Live at Royce Hall, 1975) (13:30)
6. Strictly Genteel (Live at Royce Hall, 1975) (07:16)

Disc 2 (49:19)
1. Show Start / Bogus Pomp Explained (Live at Royce Hall, 1975) (06:28)
2. Bogus Pomp (Live at Royce Hall, 1975) (15:01)
3. Revised Music for Low-Budget Symphony Orchestra (Live at Royce Hall, 1975) (06:54)
4. The Story of Pedro's Dowry (Live at Royce Hall, 1975) (02:10)
5. Pedro's Dowry (Live at Royce Hall, 1975) (08:08)
6. The Story of Rollo (Live at Royce Hall, 1975) (03:38)
7. Rollo (Live at Royce Hall, 1975) (07:00)

Disc 3 (01:00:54)
1. Black Napkins Instructions (Live at Royce Hall, 1975) (04:34)
2. Black Napkins (Live at Royce Hall, 1975) (07:30)
3. Dog / Meat (Live at Royce Hall, 1975) (05:02)
4. The Players (Live at Royce Hall, 1975) (01:07)
5. Naval Aviation in Art? (Live at Royce Hall, 1975) (02:05)
6. Another Weirdo Number (Live at Royce Hall, 1975) (01:04)
7. Lumpy Gravy (Extract) / Improvisation (Live at Royce Hall, 1975) (07:01)
8. Evening at the Hermitage (Live at Royce Hall, 1975) (03:23)
9. A Special Guest Artist (Live at Royce Hall, 1975) (00:43)
10. Duke of Prunes (Live at Royce Hall, 1975) (05:40)
11. Absolutely Disgusting (Live at Royce Hall, 1975) (01:43)
12. The Adventures of Greggery Peccary (Live at Royce Hall, 1975) (13:39)
13. Strictly Genteel (Live at Royce Hall, 1975) (07:23)

foobar2000 1.4.1 / Dynamic Range Meter 1.1.1
log date: 2021-04-02 15:03:25

––––––––––––––––––––––––––––––––––––––––
Analyzed: Frank Zappa / Orchestral Favorites
––––––––––––––––––––––––––––––––––––––––

DR Peak RMS Duration Track
––––––––––––––––––––––––––––––––––––––––
DR10 -0.30 dB -12.78 dB 7:03 01-Strictly Genteel (Live At Royce Hall, 1975 / Remastered 2019)
DR12 -0.30 dB -15.24 dB 7:41 02-Pedro's Dowry (Live At Royce Hall, 1975 / Remastered 2019)
DR12 -2.18 dB -17.87 dB 1:24 03-Naval Aviation In Art? (Live At Royce Hall, 1975 / Remastered 2019)
DR9 -0.30 dB -11.18 dB 4:21 04-Duke Of Prunes (Live At Royce Hall, 1975 / Remastered 2019)
DR11 -0.30 dB -15.23 dB 13:28 05-Bogus Pomp (Live At Royce Hall, 1975 / Remastered 2019)
DR9 -0.30 dB -12.03 dB 7:16 06-Strictly Genteel (Live At Royce Hall, 1975 / Keyboard OD Version)
––––––––––––––––––––––––––––––––––––––––

Number of tracks: 6
Official DR value: DR11

Samplerate: 96000 Hz
Channels: 2
Bits per sample: 24
Bitrate: 2891 kbps
Codec: FLAC
================================================================================

foobar2000 1.4.1 / Dynamic Range Meter 1.1.1
log date: 2021-04-02 15:04:41

––––––––––––––––––––––––––––––––––––––––
Analyzed: Frank Zappa / Orchestral Favorites
––––––––––––––––––––––––––––––––––––––––

DR Peak RMS Duration Track
––––––––––––––––––––––––––––––––––––––––
DR15 -8.55 dB -28.71 dB 6:28 01-Show Start / Bogus Pomp Explained (Live At Royce Hall, 9/18/1975)
DR11 -0.20 dB -16.46 dB 15:01 02-Bogus Pomp (Live At Royce Hall, 9/18/1975)
DR13 -0.20 dB -17.07 dB 6:55 03-Revised Music For Low-Budget Symphony Orchestra (Live At Royce Hall, 9/18/1975)
DR14 -11.03 dB -30.59 dB 2:10 04-The Story Of Pedro's Dowry (Live At Royce Hall, 9/18/1975)
DR14 -0.20 dB -18.28 dB 8:09 05-Pedro's Dowry (Live At Royce Hall, 9/18/1975)
DR15 -9.54 dB -28.86 dB 3:38 06-The Story Of Rollo (Live At Royce Hall, 9/18/1975)
DR11 -0.20 dB -13.68 dB 7:00 07-Rollo (Live At Royce Hall, 9/18/1975)
––––––––––––––––––––––––––––––––––––––––

Number of tracks: 7
Official DR value: DR13

Samplerate: 96000 Hz
Channels: 2
Bits per sample: 24
Bitrate: 3138 kbps
Codec: FLAC
================================================================================

foobar2000 1.4.1 / Dynamic Range Meter 1.1.1
log date: 2021-04-02 15:06:18

––––––––––––––––––––––––––––––––––––––––
Analyzed: Frank Zappa / Orchestral Favorites
––––––––––––––––––––––––––––––––––––––––

DR Peak RMS Duration Track
––––––––––––––––––––––––––––––––––––––––
DR16 -6.96 dB -29.12 dB 4:35 01-Black Napkins Instructions (Live At Royce Hall, 9/18/1975)
DR11 -0.20 dB -13.83 dB 7:31 02-Black Napkins (Live At Royce Hall, 9/18/1975)
DR11 -0.20 dB -14.05 dB 5:03 03-Dog / Meat (Live At Royce Hall, 9/18/1975)
DR14 -8.55 dB -26.93 dB 1:07 04-The Players (Live At Royce Hall, 9/18/1975)
DR14 -8.91 dB -27.86 dB 2:06 05-Naval Aviation In Art? (Live At Royce Hall, 9/18/1975)
DR14 -11.81 dB -29.87 dB 1:05 06-Another Weirdo Number (Live At Royce Hall, 9/18/1975)
DR14 -0.20 dB -18.01 dB 7:01 07-Lumpy Gravy (Extract) / Improvisation (Live At Royce Hall, 9/18/1975)
DR12 -0.20 dB -17.17 dB 3:23 08-Evening At The Hermitage (Live At Royce Hall, 9/18/1975)
DR14 -8.83 dB -26.83 dB 0:43 09-A Special Guest Artist (Live At Royce Hall, 9/18/1975)
DR11 -0.20 dB -14.86 dB 5:40 10-Duke Of Prunes (Live At Royce Hall, 9/18/1975)
DR13 -10.75 dB -29.24 dB 1:44 11-Absolutely Disgusting (Live At Royce Hall, 9/18/1975)
DR13 -0.20 dB -16.79 dB 13:40 12-The Adventures Of Greggery Peccary (Live At Royce Hall, 9/18/1975)
DR11 -0.20 dB -14.48 dB 7:21 13-Strictly Genteel (Live At Royce Hall, 9/18/1975)
––––––––––––––––––––––––––––––––––––––––

Number of tracks: 13
Official DR value: DR13

Samplerate: 96000 Hz
Channels: 2
Bits per sample: 24
Bitrate: 3032 kbps
Codec: FLAC
================================================================================


Thanks to the Original customer!