Frank Zappa - Sheik Yerbouti (1979/2021) [Official Digital Download 24/192]

Posted By: delpotro
Frank Zappa - Sheik Yerbouti (1979/2021) [Official Digital Download 24/192]

Frank Zappa - Sheik Yerbouti (1979/2021)
FLAC (tracks) 24-bit/192 kHz | Front Cover & Digital Booklet | Time - 71:45 minutes | 3,47 GB
Jazz Rock, Progressive Rock, Comedy Rock | Label: Zappa Records, Official Digital Download

Sheik Yerbouti is a double album by Frank Zappa, first released in March 1979 as the first release on Zappa Records (distributed by Phonogram Inc.). It was later released on one CD. It is mostly made up of live material recorded in 1977 and 1978, with later overdubs in the studio.

Tracklist:
1. I Have Been In You (03:33)
2. Flakes (06:40)
3. Broken Hearts Are for Assholes (03:41)
4. I'm So Cute (04:27)
5. Jones Crusher (02:49)
6. What Ever Happened to All the Fun In the World (00:33)
7. Rat Tomago (05:14)
8. Wait a Minute (00:33)
9. Bobby Brown Goes Down (02:49)
10. Rubber Shirt (02:44)
11. The Sheik Yerbouti Tango (03:55)
12. Baby Snakes (01:49)
13. Tryin' to Grow a Chin (03:31)
14. City of Tiny Lites (05:30)
15. Dancin' Fool (03:42)
16. Jewish Princess (03:18)
17. Wild Love (04:09)
18. Yo' Mama (12:39)

foobar2000 1.4.1 / Dynamic Range Meter 1.1.1
log date: 2021-03-26 14:18:10

––––––––––––––––––––––––––––––––––––––––
Analyzed: Frank Zappa / Sheik Yerbouti
––––––––––––––––––––––––––––––––––––––––

DR Peak RMS Duration Track
––––––––––––––––––––––––––––––––––––––––
DR11 -0.30 dB -14.16 dB 3:33 01-I Have Been In You
DR11 -0.30 dB -13.44 dB 6:40 02-Flakes
DR11 -0.30 dB -13.69 dB 3:42 03-Broken Hearts Are For Assholes
DR9 -0.30 dB -12.28 dB 4:28 04-I'm So Cute
DR11 -0.30 dB -12.76 dB 2:49 05-Jones Crusher
DR14 -0.30 dB -19.76 dB 0:33 06-What Ever Happened To All The Fun In The World
DR11 -0.30 dB -12.55 dB 5:15 07-Rat Tomago
DR14 -2.60 dB -26.67 dB 0:33 08-Wait A Minute
DR11 -0.30 dB -13.30 dB 2:49 09-Bobby Brown Goes Down
DR13 -0.30 dB -16.06 dB 2:45 10-Rubber Shirt
DR11 -0.30 dB -12.36 dB 3:56 11-The Sheik Yerbouti Tango
DR12 -0.30 dB -13.22 dB 1:50 12-Baby Snakes
DR10 -0.30 dB -11.67 dB 3:32 13-Tryin' To Grow A Chin
DR10 -0.30 dB -12.42 dB 5:30 14-City Of Tiny Lites
DR10 -0.30 dB -12.12 dB 3:43 15-Dancin' Fool
DR12 -0.30 dB -13.70 dB 3:18 16-Jewish Princess
DR12 -0.30 dB -14.55 dB 4:09 17-Wild Love
DR12 -0.30 dB -14.09 dB 12:39 18-Yo' Mama
––––––––––––––––––––––––––––––––––––––––

Number of tracks: 18
Official DR value: DR11

Samplerate: 192000 Hz
Channels: 2
Bits per sample: 24
Bitrate: 6862 kbps
Codec: FLAC
================================================================================


Thanks to the Original customer!