Frank Zappa & The Mothers of Invention - Weasels Ripped My Flesh (1970/2021) [Official Digital Download 24/192]

Posted By: delpotro
Frank Zappa & The Mothers of Invention - Weasels Ripped My Flesh (1970/2021) [Official Digital Download 24/192]

Frank Zappa & The Mothers of Invention - Weasels Ripped My Flesh (1970/2021)
FLAC (tracks) 24-bit/192 kHz | Front Cover & Digital Booklet | Time - 39:49 minutes | 1,68 GB
Jazz Rock, Progressive Rock | Label: Zappa Records, Official Digital Download

Weasels Ripped My Flesh is the seventh studio album by the American rock group the Mothers of Invention, and the tenth overall by Frank Zappa, released in 1970. It is the second album released after the Mothers disbanded in 1969, preceded by Burnt Weeny Sandwich. In contrast to its predecessor, which almost entirely focused on studio recordings of arranged compositions, Weasels Ripped My Flesh consists of a combination of live and studio recordings and features more improvisation.

Tracklist:
1. Didja Get Any Onya? (03:43)
2. Directly from My Heart to You (05:18)
3. Prelude to the Afternoon of a Sexually Aroused Gas Mask (03:35)
4. Toads of the Short Forest (04:47)
5. Get a Little (02:33)
6. The Eric Dolphy Memorial Barbecue (06:51)
7. Dwarf Nebula Processional March & Dwarf Nebula (02:11)
8. My Guitar Wants to Kill Your Mama (03:35)
9. Oh No (01:45)
10. The Orange County Lumber Truck (03:20)
11. Weasles Ripped My Flesh (02:04)

foobar2000 1.4.1 / Dynamic Range Meter 1.1.1
log date: 2021-03-26 14:21:06

––––––––––––––––––––––––––––––––––––––––
Analyzed: The Mothers Of Invention / Weasels Ripped My Flesh
––––––––––––––––––––––––––––––––––––––––

DR Peak RMS Duration Track
––––––––––––––––––––––––––––––––––––––––
DR11 -0.33 dB -15.31 dB 3:43 01-Didja Get Any Onya? (Live At Philadelphia Arena, 3/2/69)
DR8 -0.63 dB -10.44 dB 5:19 02-Directly From My Heart To You
DR10 -0.90 dB -15.68 dB 3:35 03-Prelude To The Afternoon Of A Sexually Aroused Gas Mask (Live At Royal Festival Hall, London, 10/25/68)
DR9 -0.34 dB -12.00 dB 4:47 04-Toads Of The Short Forest
DR9 -0.30 dB -11.67 dB 2:34 05-Get A Little
DR10 -0.30 dB -13.03 dB 6:52 06-The Eric Dolphy Memorial Barbecue
DR11 -0.35 dB -13.45 dB 2:12 07-Dwarf Nebula Processional March & Dwarf Nebula
DR9 -0.30 dB -10.84 dB 3:36 08-My Guitar Wants To Kill Your Mama
DR9 -0.30 dB -10.78 dB 1:45 09-Oh No
DR9 -0.30 dB -10.37 dB 3:21 10-The Orange County Lumber Truck (Live At Royal Festival Hall, London, 10/25/68)
DR8 -0.37 dB -11.00 dB 2:05 11-Weasles Ripped My Flesh (Live At Town Hall, Birmingham, 5/30/69)
––––––––––––––––––––––––––––––––––––––––

Number of tracks: 11
Official DR value: DR9

Samplerate: 192000 Hz
Channels: 2
Bits per sample: 24
Bitrate: 6223 kbps
Codec: FLAC
================================================================================


Thanks to the Original customer!