Jaga Jazzist - Pyramid (Vinyl) (2020) [24bit/192kHz]

Posted By: delpotro
Jaga Jazzist - Pyramid (Vinyl) (2020) [24bit/192kHz]

Jaga Jazzist - Pyramid (2020)
Vinyl Rip | FLAC (tracks) 24-bit/192 kHz | Time - 38:59 minutes | 1,37 GB | Artwork - 17 MB
Contemporary Jazz, Jazz Rock, Electronic | Label: Brainfeeder

Jaga Jazzist return with their new album Pyramid, where the legendary Norwegian eight-piece takes a deep dive into post-rock, jazz and psychedelia influences. It’s their first album since 2015’s Starfire, their ninth album in a career now spanning four decades, but it marks the group’s debut on Brainfeeder, the LA-based imprint curated by Flying Lotus. On Pyramid, Jaga Jazzist have crafted a suitably cosmic sound to match their new label home, all the while nodding to forebears spanning from 80s jazz band Out To Lunch and Norwegian synth guru Ståle Storløkken, to contemporaries Tame Impala, Todd Terje and Jon Hopkins. Each of the album’s four longform entries evolves over carefully plotted movements, the tracks’ technicolour threads dreamily unspooling.

Tracklist:
A1 – Tomita (13:47)
A2 – Spiral Era (08:09)
B1 – The Shrine (09:06)
B2 – Apex (08:09)

foobar2000 1.4.1 / Dynamic Range Meter 1.1.1
log date: 2021-01-19 13:23:49

––––––––––––––––––––––––––––––––––––––––
Analyzed: Jaga Jazzist / Pyramid
––––––––––––––––––––––––––––––––––––––––

DR Peak RMS Duration Track
––––––––––––––––––––––––––––––––––––––––
DR11 -2.09 dB -16.75 dB 13:46 A1-Tomita
DR12 -2.87 dB -16.63 dB 8:07 A2-Spiral Era
DR12 -2.04 dB -15.98 dB 9:06 B1-The Shrine
DR10 -3.68 dB -16.67 dB 8:00 B2-Apex
––––––––––––––––––––––––––––––––––––––––

Number of tracks: 4
Official DR value: DR11

Samplerate: 192000 Hz
Channels: 2
Bits per sample: 24
Bitrate: 5035 kbps
Codec: FLAC
================================================================================


Rega P10 Turntable with Rega P10 PSU > Virgin Vinyl > Rega Apheta 3 Cartridge > PS Audio NuWave Phono Converter > AudioQuest Carbon USB cable > USB-IN
Post Processing: 24bit Audition WAV > ClickRepair 10/0 > Boost volume +2.23/2.88 DB > Remove DC Bias > 24bit WAV > FLAC
Thanks to the Original customer!