Neptunian Maximalism - Éons (2020) [Official Digital Download]

Posted By: delpotro
Neptunian Maximalism - Éons (2020) [Official Digital Download]

Neptunian Maximalism - Éons (2020)
FLAC (tracks) 24-bit/44,1 kHz | Front Cover | Time - 128:25 minutes | 1,33 GB
Experimental, Drone, Free Jazz, Jazz Rock, Metal | Label: I, Voidhanger Records, Official Digital Download

Belgium's NEPTUNIAN MAXIMALISM (aka NNMM) is a community of “cultural engineers” with a variable line-up, mixing drone metal with spiritual free jazz and psychedelic music. The project was initiated in 2018 by multi-instrumentalist Guillaume Cazalet (Czlt, Jenny Torse, Aksu), who brought together veteran saxophonist Jean Jacques Duerinckx (Ze Zorgs) and two drummers, Sebastien Schmit (K-Branding) and Pierre Arese (Aksu). In 2020, Stephane FDL and Lukas Bouchenot took the drums. Reshma Goolamy (bass), Romain Martini (guitar), Alice Thiel (synths, guitar), Joaquin Bermudez (saz, setar), Didié Nietzche (soundscapes) and Leslie V. (black magic scenography) joined in 2019, thus changing the band into a real drone orchestra.

By exploring the evolution of the human species, NEPTUNIAN MAXMALISM question the future of the living on Earth, propitiating a feeling of acceptance for the conclusion of the so called "anthropocene" era and preparing us for the incoming “probocene” era, imagining our planet ruled by superior intelligent elephants after the end of humanity. As Guillaume Cazalet explains, “for certain scientists, if we hadn't rule the Earth, elephants were supposed to be at the top of the pyramid of terrestrial life.”

The ambitious album trilogy of “Éons” is a musical experience of gargantuan proportions where each chapter is part of a fascinating ritual, a cosmic mass of light and darkness recalling the works of SUNN O))), EARTH, ALUK TODOLO, ACID MOTHERS TEMPLE, SWANS, MOTORPSYCHO, SUN RA and the late JOHN COLTRANE.

The intoxicating bacchanal starts with “To The Earth (Aker Hu Benben)”, a heavy tribal music affair influenced by stoner metal, noise rock and free jazz. “It's a balance between sacred and profane, and resumes lots of human feelings or their consequences, such as love, war, hate, ritual dance, transmutation, strength, feminine/masculine juxtaposition, etc,”, says Cazalet.

With “To The Moon (Heka Khaibit Sekhem)” the band opts for a slightly different approach, surrealistic yet brutal, occasionally steering towards black-doom metal. Cazalet: “Here the rhythm section plays an important role, fueled by an obscure power that plunges the listener into a magic, occult trance; this album is characterized by shamanic invocations and summonings of the ancients by using animal-like growls and the homo-sapiens' proto-language as reconstructed by Pierre Lanchantin, an English researcher/archeologist from the University of Cambridge.”

The third and final chapter encompasses the interstellar meditations of “To The Sun (Ânkh Maât Sia)”, described by Cazalet as a solar drone opera: “We worked on the power of frequencies and tonality, chthonian deep vibrations and iridescent high lights by using huge amplified baritone sax and guitars, spectral soundscapes, antic cinematographic views and tribal percussions.”

Wrapped in a phantasmagoric painting by Japanese master Kaneko Tomiyuki, NEPTUNIAN MAXIMALISM's “Éons” is with no doubt the quintessential mystical and psychedelic journey of 2020.

Tracklist:
1. To The Earth: Daiitoku-Myōō no ŌDAIKO 大威徳明王 鼓童 - L'Impact De Théia durant l’Éon Hadéen (06:13)
2. To The Earth: NGANGA - Grand Guérisseur Magique de l’ère Probocène (08:35)
3. To The Earth: LAMASTHU - Ensemenceuse du Reigne Fongique Primordial & Infanticides des Singes du Néogène (04:00)
4. To The Earth: PTAH SOKAR OSIRIS - Rituel de l’Ouverture de la Bouche dans l’Éon Archéen (09:16)
5. To The Earth: MAGICKÁ DŽUNGL'A - Carboniferous (02:20)
6. To The Earth: ENŪMA ELIŠ - La Mondialisation ou la Création du Monde: Éon Protérozoïque (07:11)
7. To The Moon: ZÂR - Empowering The Phurba / Éon Phanérozoïque (07:05)
8. To The Moon: VAJRABHAIRAVA Part I - The Summoning (Nasatanada Zazas!) (06:03)
9. To The Moon: VAJRABHAIRAVA Part II - The Rising (02:04)
10. To The Moon: VAJRABHAIRAVA Part III - The Great Wars of Quaternary Era Against Ego (08:36)
11. To The Moon: IADANAMADA! - Homo-sensibilis se Prosternant sous la Lumière Cryptique de Proboscidea-sapiens (05:38)
12. To The Moon: Ol SONUF VAORESAJI! - La Sixième Extinction de Masse: Le Génocide Anthropocène (12:32)
13. To The Sun: EÔS - Avènement de l’Éon Evaísthitozoïque Probocène Flamboyant (18:32)
14. To The Sun: HEKA HOU SIA - Les Animaux Pensent-ils Comme on Pense qu’ils Pensent? (06:20)
15. To The Sun: HELIOZOAPOLIS - Les Criosphinx Sacrés d’Amon-Rê, Protecteurs du Cogito Ergo Sum Animal (15:24)
16. To The Sun: KHONSOU SOKARIS - We Are, We Were and We Will Have Been (08:36)

foobar2000 1.4.1 / Dynamic Range Meter 1.1.1
log date: 2021-01-30 12:20:45

––––––––––––––––––––––––––––––––––––––––
Analyzed: NEPTUNIAN MAXIMALISM / Éons
––––––––––––––––––––––––––––––––––––––––

DR Peak RMS Duration Track
––––––––––––––––––––––––––––––––––––––––
DR9 -0.30 dB -10.83 dB 6:13 01-To The Earth: Daiitoku-Myōō no ŌDAIKO 大威徳明王 鼓童 - L'Impact De Théia durant l’Éon Hadéen
DR9 0.00 dB -10.28 dB 8:35 02-To The Earth: NGANGA - Grand Guérisseur Magique de l’ère Probocène
DR6 0.00 dB -8.40 dB 4:00 03-To The Earth: LAMASTHU - Ensemenceuse du Reigne Fongique Primordial & Infanticides des Singes du Néogène
DR9 0.00 dB -10.24 dB 9:16 04-To The Earth: PTAH SOKAR OSIRIS - Rituel de l’Ouverture de la Bouche dans l’Éon Archéen
DR6 -0.30 dB -9.14 dB 2:20 05-To The Earth: MAGICKÁ DŽUNGL'A - Carboniferous
DR8 -0.30 dB -10.09 dB 7:11 06-To The Earth: ENŪMA ELIŠ - La Mondialisation ou la Création du Monde: Éon Protérozoïque
DR9 0.00 dB -10.72 dB 7:05 07-To The Moon: ZÂR - Empowering The Phurba / Éon Phanérozoïque
DR8 0.00 dB -9.16 dB 6:03 08-To The Moon: VAJRABHAIRAVA Part I - The Summoning (Nasatanada Zazas!)
DR9 0.00 dB -10.44 dB 2:04 09-To The Moon: VAJRABHAIRAVA Part II - The Rising
DR8 0.00 dB -9.99 dB 8:36 10-To The Moon: VAJRABHAIRAVA Part III - The Great Wars of Quaternary Era Against Ego
DR7 -0.30 dB -10.49 dB 5:38 11-To The Moon: IADANAMADA! - Homo-sensibilis se Prosternant sous la Lumière Cryptique de Proboscidea-sapiens
DR8 -0.30 dB -10.74 dB 12:32 12-To The Moon: Ol SONUF VAORESAJI! - La Sixième Extinction de Masse: Le Génocide Anthropocène
DR8 -0.30 dB -10.13 dB 18:32 13-To The Sun: EÔS - Avènement de l’Éon Evaísthitozoïque Probocène Flamboyant
DR9 -0.30 dB -11.13 dB 6:20 14-To The Sun: HEKA HOU SIA - Les Animaux Pensent-ils Comme on Pense qu’ils Pensent?
DR8 0.00 dB -9.59 dB 15:24 15-To The Sun: HELIOZOAPOLIS - Les Criosphinx Sacrés d’Amon-Rê, Protecteurs du Cogito Ergo Sum Animal
DR8 -0.30 dB -11.71 dB 8:36 16-To The Sun: KHONSOU SOKARIS - We Are, We Were and We Will Have Been
––––––––––––––––––––––––––––––––––––––––

Number of tracks: 16
Official DR value: DR8

Samplerate: 44100 Hz
Channels: 2
Bits per sample: 24
Bitrate: 1366 kbps
Codec: FLAC
================================================================================


Thanks to the Original customer!