Tags
Language
Tags

Sink Tapes - Secret Club (2018) [Official Digital Download]

Posted By: HDV
Sink Tapes - Secret Club (2018) [Official Digital Download]

Sink Tapes - Secret Club (2018)
FLAC (tracks) 24-bit/48 kHz | Time - 38:20 minutes | 420 MB
Studio Master, Official Digital Download | Artwork: Front cover

Sink tapes in an indie-rock band that experiments with a variety of different electronic sounds while still staying true to their roots in folk-rock idioms. Listeners can hear these innovations on track like "Sulk Dream" and "Wizard Shit".


The highly anticipated return of New Brunswick indie rockers Sink Tapes edges closer with the release of their experimental 16-song Secret Club on Mint 400 Records, featuring the single and video “Wizard Shit.” Upcoming shows for the slimmed-down three-piece include Feb. 24 at Piano’s in New York; March 20 at Pet Shop in Jersey City; March 29 at Meatlocker in Montclair, and April 20 at The Saint in Asbury Park. Meanwhile, Sink Tapes will ready two more albums of material produced during their year-long hiatus: a compilation of B sides and a delicious collection of exceptional new songs that is being shopped to a variety of labels.

Tracklist:

01 - The Execution
02 - Royal Blue / I
03 - 2D4T (-10)
04 - Boomerang
05 - Sulk Dream
06 - Masks
07 - II
08 - Integrated Series Model
09 - III
10 - Adaptation Take Down
11 - IV
12 - Drawing Cards
13 - V
14 - Wizard Shit
15 - Deep Weeper
16 - Secret Club

All songs written, recorded & produced by Sink Tapes.

Analyzed: Sink Tapes / Secret Club
––––––––––––––––––––––––––––––––––––––––

DR Peak RMS Duration Track
––––––––––––––––––––––––––––––––––––––––
DR9 -9.65 dB -22.56 dB 0:21 01-The Execution
DR12 -1.70 dB -17.57 dB 4:24 02-Royal Blue / I
DR11 -1.37 dB -14.54 dB 2:43 03-2D4T (-10)
DR9 -1.60 dB -14.43 dB 1:57 04-Boomerang
DR12 -1.81 dB -17.35 dB 1:44 05-Sulk Dream
DR12 -0.44 dB -16.85 dB 3:33 06-Masks
DR5 -4.49 dB -12.71 dB 1:07 07-II
DR10 -2.38 dB -15.50 dB 1:44 08-Integrated Series Model
DR8 -9.22 dB -20.89 dB 0:40 09-III
DR12 -3.17 dB -17.07 dB 3:53 10-Adaptation Take Down
DR10 -1.42 dB -15.81 dB 0:40 11-IV
DR11 0.00 dB -14.82 dB 2:16 12-Drawing Cards
DR7 -1.49 dB -11.20 dB 2:22 13-V
DR13 0.00 dB -15.59 dB 2:52 14-Wizard Shit
DR12 -0.57 dB -16.29 dB 2:00 15-Deep Weeper
DR11 -1.01 dB -14.92 dB 6:03 16-Secret Club
––––––––––––––––––––––––––––––––––––––––

Number of tracks: 16
Official DR value: DR10

Samplerate: 48000 Hz
Channels: 2
Bits per sample: 24
Bitrate: 1440 kbps
Codec: FLAC
================================================================================


Thanks to the Original customer!