Thomas David - To Love (2017) [Official Digital Download]

Posted By: HDV
Thomas David - To Love (2017) [Official Digital Download]

Thomas David - To Love (2017)
FLAC (tracks) 24-bit/44,1 kHz | Time - 43:58 minutes | 505 MB
Studio Master, Official Digital Download | Artwork: Front cover

Thomas David may look like just another singer/songwriter, but once you listen carefully to his expressive voice and simple acoustic sound, you'll be captured from the very first moment. Influenced by the music of bands like Matchbox20, The Calling or songwriter like Jason Mraz, Gavin Degraw and many more, he writes and performs his songs with a lot of honesty. In his intimate live shows, Thomas mixes his sunny nature with his sincere music and connects with the audience in a truly charming way.


Tracklist:

01 - Find My Love
02 - A Million Lights
03 - Runaway
04 - Catch Me On The Fly
05 - Man With Heart
06 - Better Off Alone
07 - Peculiar
08 - Sooner Or Later
09 - Sweet Nothings
10 - Illusions
11 - Sway

Analyzed: Thomas David / to love
––––––––––––––––––––––––––––––––––––––––

DR Peak RMS Duration Track
––––––––––––––––––––––––––––––––––––––––
DR7 -0.10 dB -9.30 dB 3:46 01-Find My Love
DR7 -0.77 dB -9.33 dB 4:05 02-A Million Lights
DR6 -0.82 dB -11.05 dB 3:40 03-Runaway
DR7 -0.94 dB -9.50 dB 3:34 04-Catch Me On The Fly
DR6 -0.52 dB -10.02 dB 4:59 05-Man With Heart
DR7 -0.99 dB -12.14 dB 4:01 06-Better Off Alone
DR10 -1.18 dB -14.06 dB 3:33 07-Peculiar
DR6 -0.64 dB -8.87 dB 3:32 08-Sooner Or Later
DR7 -0.99 dB -10.19 dB 3:43 09-Sweet Nothings
DR9 -0.18 dB -11.69 dB 4:20 10-Illusions
DR7 -0.70 dB -13.26 dB 4:46 11-Sway
––––––––––––––––––––––––––––––––––––––––

Number of tracks: 11
Official DR value: DR7

Samplerate: 44100 Hz
Channels: 2
Bits per sample: 24
Bitrate: 1440 kbps
Codec: FLAC
================================================================================


Thanks to the Original customer!