VA - INTENT2021: Softshell (2021) [Official Digital Download]

Posted By: delpotro
VA - INTENT2021: Softshell (2021) [Official Digital Download]

VA - INTENT2021: Softshell (2021)
FLAC (tracks) 24-bit/44,1 kHz | Front Cover | Time - 88:08 minutes | 873 MB
Experimental Electronic, Ambient, Drone | Label: Kalamine Records, Official Digital Download

The INTENT compilation series is (aiming to be) a long-running series inspiring and motivating electronic and experimental music artists around the world to participate in the creation of their own reality through setting intentions for the coming year. As the compilation call stated: "It's time for expressing your intentions through creativity for the year 2021! Be creative, experiment, play, think of something you would like to happen in your life in 2021, produce a track, and submit it to the compilation."

The third volume of INTENT 2021, "Softshell", includes works by artists based in the UK, Ireland, France, Germany, Italy, Sweden, Croatia, and the US (Maryland, Missouri, Ohio, Oregon, Texas). Do you know that being vulnerable is one of the most attractive qualities in a human being? "Vulnerability is an act of courage because you merge with your authentic self, instead of hiding behind a facade to appease others. It is within the unknown where your greatest potential lies." (Tony Fahkry)

Thanks to Graham Fialkiewicz for the enormous amount of love and support poured into the compilation project, Slavek Kwi (Artificial Memory Trace) for additional promotion, and everyone else who made this compilation happen.

Tracklist:
1. Roberto Vodanović Čopor - The Sea Would Be Here Forevermore (05:40)
2. Stephen Bradley - Winter Mantis (10:23)
3. Artificial Memory Trace - Intently (11:58)
4. Linn Friberg feat. Chris DeBry - Darkness Dissipating (uni.Sol_43 Live Mix) (12:16)
5. Fugue In Sea - The Face In The Misty Light (08:00)
6. Tone Tone - Orange Qin (04:03)
7. The Hauchzart Ensemble feat. Neli CoKo - Hauchzart Love COÖP (LSTBSCOÖP) (06:27)
8. Chris DeBry - I Am A Friend, Not An Enemy (01:36)
9. Tone Tone - Questioning False Self (05:20)
10. Edø Pistø Sømi - Last Bus To WISE J224607.57-052635.0 (04:15)
11. Die Abbilder - Heartbeat (06:08)
12. NMTArts - Prismatic Hues (05:37)
13. AppleMax - 15750 Psi (03:05)
14. Chris DeBry - Towards The Light (03:20)

foobar2000 1.4.1 / Dynamic Range Meter 1.1.1
log date: 2021-02-23 08:37:59

––––––––––––––––––––––––––––––––––––––––
Analyzed: Various Artists / INTENT2021: Softshell
––––––––––––––––––––––––––––––––––––––––

DR Peak RMS Duration Track
––––––––––––––––––––––––––––––––––––––––
DR12 -0.26 dB -14.41 dB 5:40 01-Roberto Vodanović Čopor - The Sea Would Be Here Forevermore
DR9 -0.75 dB -14.76 dB 10:23 02-Stephen Bradley - Winter Mantis
DR8 -0.26 dB -11.99 dB 11:58 03-Artificial Memory Trace - Intently
DR10 -2.42 dB -13.93 dB 12:16 04-Linn Friberg feat. Chris DeBry - Darkness Dissipating (uni.Sol_43 Live Mix)
DR9 -0.72 dB -11.76 dB 8:00 05-Fugue In Sea - The Face In The Misty Light
DR12 -0.26 dB -14.62 dB 4:03 06-Tone Tone - Orange Qin
DR10 -0.62 dB -13.21 dB 6:27 07-The Hauchzart Ensemble feat. Neli CoKo - Hauchzart Love COÖP (LSTBSCOÖP)
DR10 -0.31 dB -15.54 dB 1:36 08-Chris DeBry - I Am A Friend, Not An Enemy
DR7 -0.26 dB -9.29 dB 5:20 09-Tone Tone - Questioning False Self
DR11 -1.40 dB -14.12 dB 4:15 10-Edø Pistø Sømi - Last Bus To WISE J224607.57-052635.0
DR8 -0.26 dB -8.88 dB 6:08 11-Die Abbilder - Heartbeat
DR7 -0.26 dB -9.06 dB 5:37 12-NMTArts - Prismatic Hues
DR7 -0.26 dB -10.26 dB 3:05 13-AppleMax - 15750 Psi
DR10 -3.72 dB -16.38 dB 3:20 14-Chris DeBry - Towards The Light
––––––––––––––––––––––––––––––––––––––––

Number of tracks: 14
Official DR value: DR9

Samplerate: 44100 Hz
Channels: 2
Bits per sample: 24
Bitrate: 1403 kbps
Codec: FLAC
================================================================================


Thanks to the Original customer!