Widespread Panic - 1999-12-31 - Philips Arena - Atlanta, GA (2021) [Official Digital Download 24/48]

Posted By: delpotro
Widespread Panic - 1999-12-31 - Philips Arena - Atlanta, GA (2021) [Official Digital Download 24/48]

Widespread Panic - 1999-12-31 - Philips Arena - Atlanta, GA (2021)
FLAC (tracks) 24-bit/48 kHz | Front Cover | Time - 212:43 minutes | 2,56 GB
Blues Rock, Jazz Rock, Jam Band | Label: nugs net, Official Digital Download

Recorded live at Philips Arena, Atlanta, 1999-12-31.

Tracklist:
Disc 1
01. Intro
02. Space Wrangler
03. Blue Indian
04. Blackout
05. Driving Song
06. Party At Your Mama's House
07. Driving Song
08. Pickin' Up The Pieces

Disc 2
01. Porch Song
02. Pilgrims
03. Love Tractor
04. Dyin' Man
05. Red Hot Mama
06. Tall Boy
07. Testify
08. Countdown

Disc 3
01. What A Wonderful World
02. Ain't Life Grand
03. Respect Yourself
04. Chilly Water
05. Barstools and Dreamers
06. Satisfied
07. Chilly Water
08. Pusherman
09. Drums

Disc 4
01. Papa's Home
02. Diner
03. All Time Low
04. Feelin' Alright

foobar2000 1.4.1 / Dynamic Range Meter 1.1.1
log date: 2021-03-13 11:23:50

––––––––––––––––––––––––––––––––––––––––
Analyzed: Widespread Panic / 1999/12/31 Atlanta, GA
––––––––––––––––––––––––––––––––––––––––

DR Peak RMS Duration Track
––––––––––––––––––––––––––––––––––––––––
DR13 -6.24 dB -25.42 dB 1:03 01-Intro
DR12 -0.40 dB -13.96 dB 12:40 02-Space Wrangler
DR13 -0.40 dB -15.64 dB 4:43 03-Blue Indian
DR12 -0.40 dB -13.98 dB 7:47 04-Blackout
DR12 -0.40 dB -15.18 dB 4:47 05-Driving Song
DR13 -0.40 dB -15.18 dB 11:15 06-Party At Your Mama's House
DR12 -0.40 dB -14.43 dB 2:59 07-Driving Song
DR8 -0.40 dB -11.13 dB 6:49 08-Pickin' Up The Pieces
DR12 -0.40 dB -14.30 dB 9:40 01-Porch Song
DR12 -0.40 dB -14.17 dB 6:58 02-Pilgrims
DR10 -0.15 dB -12.19 dB 5:39 03-Love Tractor
DR11 -0.10 dB -13.16 dB 6:11 04-Dyin' Man
DR11 -0.40 dB -12.98 dB 7:01 05-Red Hot Mama
DR13 -0.40 dB -14.20 dB 4:10 06-Tall Boy
DR10 -0.40 dB -13.01 dB 6:47 07-Testify
DR13 -0.40 dB -16.47 dB 4:24 08-Countdown
DR12 -0.40 dB -15.16 dB 4:23 01-What A Wonderful World
DR10 -0.37 dB -12.48 dB 5:57 02-Ain't Life Grand
DR9 -0.40 dB -12.19 dB 5:42 03-Respect Yourself
DR12 -0.40 dB -13.63 dB 6:18 04-Chilly Water
DR12 -0.40 dB -13.58 dB 8:55 05-Barstools and Dreamers
DR11 -0.40 dB -12.67 dB 5:38 06-Satisfied
DR11 -0.40 dB -13.81 dB 3:39 07-Chilly Water
DR12 -0.40 dB -14.03 dB 11:12 08-Pusherman
DR14 -0.40 dB -17.47 dB 22:42 09-Drums
DR11 -0.40 dB -13.58 dB 7:36 01-Papa's Home
DR11 -0.40 dB -13.35 dB 12:53 02-Diner
DR10 -0.40 dB -11.89 dB 6:09 03-All Time Low
DR10 -0.40 dB -12.21 dB 8:47 04-Feelin' Alright
––––––––––––––––––––––––––––––––––––––––

Number of tracks: 29
Official DR value: DR11

Samplerate: 48000 Hz
Channels: 2
Bits per sample: 24
Bitrate: 1778 kbps
Codec: FLAC
================================================================================


Thanks to the Original customer!