Widespread Panic - 2019-05-02 Jazz & Heritage Festival, New Orleans, LA (2019) [Official Digital Download 24/96]

Posted By: delpotro
Widespread Panic - 2019-05-02 Jazz & Heritage Festival, New Orleans, LA (2019) [Official Digital Download 24/96]

Widespread Panic - 2019-05-02 Jazz & Heritage Festival, New Orleans, LA (2019)
FLAC (tracks) 24-bit/496 kHz | Front Cover | Time - 148:37 minutes | 3,22 GB
Blues Rock, Jazz Rock, Jam Band | Label: nugs net, Official Digital Download

The Southern behemoths of rock and roll, Widespread Panic, left Charleston and Trondossa Music & Arts Festival in a blaze of glory to return to the swamps of New Orleans. New Orleans’ notorious Jazz & Heritage Festival rivals Mardi Gras celebrations in attendance and exuberance. The jam band from Athens, Georgia are no strangers to Jazz Fest, having played the festival 11 times in 22 years. The band returned to their traditional Thursday headlining spot as they have in 2017 and 2015, after the cancellations of both The Rolling Stones and Fleetwood Mac.

Tracklist:
Disc 1
01. Pigeons
02. Ain't Life Grand
03. Little Lilly
04. Tall Boy
05. Bayou Lena
06. Sell, Sell
07. Henry Parsons Died

Disc 2
01. Honky Red
02. Up All Night
03. Surprise Valley
04. Ride Me High
05. Rebirtha
06. North

Disc 3
01. I Walk On Guilded Splinters
02. Familiar Reality
03. Love Tractor
04. Blackout Blues
05. Chilly Water

foobar2000 1.4.1 / Dynamic Range Meter 1.1.1
log date: 2021-03-09 09:22:48

––––––––––––––––––––––––––––––––––––––––
Analyzed: Widespread Panic / 2019/05/02 New Orleans, LA
––––––––––––––––––––––––––––––––––––––––

DR Peak RMS Duration Track
––––––––––––––––––––––––––––––––––––––––
DR8 -0.20 dB -10.36 dB 10:07 01-Pigeons
DR8 -0.20 dB -9.80 dB 5:01 02-Ain't Life Grand
DR8 -0.20 dB -9.36 dB 10:47 03-Little Lilly
DR8 -0.20 dB -8.75 dB 4:35 04-Tall Boy
DR8 -0.20 dB -9.02 dB 6:03 05-Bayou Lena
DR7 -0.20 dB -8.86 dB 6:35 06-Sell, Sell
DR7 -0.20 dB -8.70 dB 6:16 07-Henry Parsons Died
DR8 -0.20 dB -10.81 dB 7:28 01-Honky Red
DR8 -0.20 dB -9.67 dB 7:14 02-Up All Night
DR8 -0.20 dB -9.82 dB 12:59 03-Surprise Valley
DR7 -0.20 dB -9.21 dB 12:10 04-Ride Me High
DR8 -0.20 dB -9.43 dB 8:59 05-Rebirtha
DR7 -0.20 dB -8.49 dB 9:21 06-North
DR8 -0.20 dB -10.02 dB 7:52 01-I Walk On Guilded Splinters
DR8 -0.20 dB -10.16 dB 9:54 02-Familiar Reality
DR8 -0.20 dB -8.94 dB 6:26 03-Love Tractor
DR7 -0.20 dB -8.81 dB 7:16 04-Blackout Blues
DR6 -0.20 dB -7.87 dB 9:35 05-Chilly Water
––––––––––––––––––––––––––––––––––––––––

Number of tracks: 18
Official DR value: DR8

Samplerate: 96000 Hz
Channels: 2
Bits per sample: 24
Bitrate: 3116 kbps
Codec: FLAC
================================================================================


Thanks to the Original customer!