Subcategories
Tags
Language
Tags

Christian Thielemann, Staatskapelle Dresden - Bruckner: The Symphonies Nos. 5-6 (2021) [Blu-Ray]

Posted By: Vilboa
Christian Thielemann, Staatskapelle Dresden - Bruckner: The Symphonies Nos. 5-6 (2021) [Blu-Ray]

Christian Thielemann, Staatskapelle Dresden - Bruckner: The Symphonies Nos. 5-6 (2021) [Blu-Ray]
BluRay | BDMV | MPEG-4 AVC Video / 1080i / 29.970 fps | 90+63 min | 20,9+18,4 Gb
Audio1: LPCM Audio / 2.0 / 24-bit | Audio2: DTS-HD Master Audio / 5.1 / 48 kHz / 24-bit
––––––
BluRay-rip | AVC | MKV 1920x1080 / 6215 kbps / 29,97 fps | 90+63 min | 4,85+3,38 Gb
Audio: DTS / 6ch / 48.0 KHz / 24-bits
Classical | C Major

This Blu-ray box contains the international acclaimed Bruckner cycle of Christian Thielemann, a “magician of the Bruckner sound”(Kurier on Symphony No. 5) and the Staatskapelle Dresden, whose own Bruckner tradition dates back more than a century. Outstanding reviews emphasize the exceptionally high artistic quality of the concerts: “Once again Thielemann proved to be the unrestricted ruler on his ancestral territory, German Romantic repertoire” (Hamburger Abendblatt on Symphony No. 2). Christian Thielemann “displays the full musical maelstrom of Bruckner’s Symphony No. 3” (Münchner Merkur). “Another Bruckner triumph for Dresden” (Sächsische Zeitung on Symphony No. 6). “… one would have to be hard-hearted not to be touched by this heartfelt music” (Der Tagesspiegel on Symphony No. 8).

Cast:
Sächsische Staatskapelle Dresden
Christian Thielemann, conductor

Track List:
Disk 5
1. Vorspann
Sinfonie Nr. 5 B-Dur
2. 1. Introduktion: Adagio - Allegro
3. 2. Adagio - Sehr langsam
4. 3. Scherzo: Molto vivace (Schnell) - Trio: Im gleichen Tempo
5. 4. Finale: Adagio - Allegro moderato
6. Applaus
7. Abspann
Disk 6
1. Vorspann
Sinfonie Nr. 6 A-Dur
2. 1. Majestoso
3. 2. Adagio - Sehr feierlich
4. 3. Scherzo: Nicht schnell - Trio: Langsam
5. 4. Finale: Bewegt, doch nicht zu schnell
6. Applaus - Abspann


Disc Title: BRUCKNER: Symphony No. 5
Disc Size: 22 448 110 642 bytes
Protection: AACS
Playlist: 00003.MPLS
Size: 20 874 713 088 bytes
Length: 1:30:21.749
Total Bitrate: 30.80 Mbps
Video: MPEG-4 AVC Video / 22936 kbps / 1080i / 29.970 fps / 16:9 / High Profile 4.1
Audio: Undetermined / LPCM Audio / 2.0 / 48 kHz / 2304 kbps / 24-bit
Audio: Undetermined / DTS-HD Master Audio / 5.1 / 48 kHz / 3931 kbps / 24-bit (DTS Core: 5.1 / 48 kHz / 1509 kbps / 24-bit)
––––––
Disc Title: Bruckner Symphony No.6
Disc Size: 19 855 368 009 bytes
Protection: AACS
Playlist: 00003.MPLS
Size: 17 857 904 640 bytes
Length: 1:03:05.348
Total Bitrate: 37.74 Mbps
Video: MPEG-4 AVC Video / 29876 kbps / 1080i / 29.970 fps / 16:9 / High Profile 4.1
Audio: Undetermined / LPCM Audio / 2.0 / 48 kHz / 2304 kbps / 24-bit
Audio: Undetermined / DTS-HD Master Audio / 5.0 / 48 kHz / 3648 kbps / 24-bit (DTS Core: 5.0 / 48 kHz / 1509 kbps / 24-bit)


General
Unique ID : 193777425927157760513191757547624700627 (0x91C82CBA0D7F4D95A986847EAC8F9AD3)
Complete name : C:\Bruckner - Symphony 5.mkv
Format : Matroska
Format version : Version 2
File size : 4.86 GiB
Duration : 1h 30mn
Overall bit rate : 7 722 Kbps
Movie name : Bruckner - Symphony 5
Encoded date : UTC 2021-06-05 13:45:56
Writing application : DVDFab 9.1.6.8
Writing library : libebml v0.7.8 + libmatroska v0.8.1

Video
ID : 1
Format : AVC
Format/Info : Advanced Video Codec
Format profile : High@L4.1
Format settings, CABAC : Yes
Format settings, ReFrames : 2 frames
Codec ID : V_MPEG4/ISO/AVC
Duration : 1h 30mn
Bit rate : 6 215 Kbps
Width : 1 920 pixels
Height : 1 080 pixels
Display aspect ratio : 16:9
Frame rate mode : Constant
Frame rate : 29.970 fps
Color space : YUV
Chroma subsampling : 4:2:0
Bit depth : 8 bits
Scan type : Progressive
Bits/(Pixel*Frame) : 0.100
Stream size : 3.81 GiB (78%)
Writing library : x264 core 142
Encoding settings : cabac=1 / ref=1 / deblock=1:-1:-1 / analyse=0x3:0 / me=hex / subme=5 / psy=0 / mixed_ref=0 / me_range=16 / chroma_me=1 / trellis=0 / 8x8dct=1 / cqm=0 / deadzone=21,11 / fast_pskip=1 / chroma_qp_offset=0 / threads=8 / lookahead_threads=2 / sliced_threads=0 / nr=0 / decimate=1 / interlaced=0 / bluray_compat=0 / constrained_intra=0 / bframes=2 / b_pyramid=0 / b_adapt=1 / b_bias=0 / direct=1 / weightb=1 / open_gop=0 / weightp=0 / keyint=24 / keyint_min=13 / scenecut=40 / intra_refresh=0 / rc=abr / mbtree=0 / bitrate=6215 / ratetol=1.0 / qcomp=0.60 / qpmin=0 / qpmax=69 / qpstep=4 / ip_ratio=1.40 / pb_ratio=1.30 / aq=1:1.00
Default : Yes
Forced : No
Color primaries : BT.709
Transfer characteristics : BT.709
Matrix coefficients : BT.709
Color range : Limited

Audio
ID : 2
Format : DTS
Format/Info : Digital Theater Systems
Mode : 16
Format settings, Endianness : Big
Codec ID : A_DTS
Duration : 1h 30mn
Bit rate mode : Constant
Bit rate : 1 509 Kbps
Channel(s) : 6 channels
Channel positions : Front: L C R, Side: L R, LFE
Sampling rate : 48.0 KHz
Bit depth : 24 bits
Compression mode : Lossy
Stream size : 972 MiB (20%)
Default : Yes
Forced : No

Menu
00:00:00.000 : en:Chapter 01
00:01:23.083 : en:Chapter 02
00:24:00.172 : en:Chapter 03
00:44:22.660 : en:Chapter 04
00:58:58.535 : en:Chapter 05
01:24:30.832 : en:Chapter 06
01:28:15.156 : en:Chapter 07

All screenshots taken from BDRip

Christian Thielemann, Staatskapelle Dresden - Bruckner: The Symphonies Nos. 5-6 (2021) [Blu-Ray]
Christian Thielemann, Staatskapelle Dresden - Bruckner: The Symphonies Nos. 5-6 (2021) [Blu-Ray]