Subcategories
Tags
Language
Tags

Jadis - Somersault (1997) {Japan 1st Press}

Posted By: popsakov
Jadis - Somersault (1997) {Japan 1st Press}

Jadis - Somersault (1997) {Japan 1st Press}
EAC Rip | FLAC (Img) + Cue + Log ~ 420 Mb | MP3 CBR320 ~ 146 Mb
Covers Included | 00:57:32 | RAR 5% Recovery
Progressive Rock | Avalon #MICY-1017

Jadis is a U.K. neo-progressive rock group. They play guitar-driven rock with the use of synthesizers to add depth and atmosphere, and an emphasis on melody. They are currently signed to InsideOut Music. The name Jadis is taken from the novel "The Magician's Nephew" by C.S.Lewis. The same character appears as the white witch in "The Lion, The Witch And The Wardrobe." Jadis was formed in 1986 and in 1989 released their first album Jadis, which was produced by Marillion's Steve Rothery. In 1992, More Than Meets the Eye was released and was received well in the progressive rock scene.

Jadis is led by Gary Chandler (vocals, electric guitar), although generally the whole group is given songwriting credit. Other original members of the band were Trevor Dawkins (bass), Pete Salmon (keyboards) and Paul Alwin (drums), who was replaced by Mark Law in July 1988. Later members were Martin Orford (keyboards), John Jowitt (bass) and Steve Christey (drums). Orford and Jowitt were also members of IQ during that time.

In the late 1990s, Orford and Jowitt left the band for a while and were replaced by Mike Torr (keyboards) and Steve Hunt (bass), but they returned for 2000's Understand. After completing their album Photoplay in 2006, Orford left the band for a second time because he retired from the music industry. He was replaced with Italian session pianist/keyboardist Giulio Risi. The same year, Jowitt also left the band again, and was replaced with session player Andy Marlow. The band released the album See Right Through You in 2012. Their latest album No Fear of Looking Down was released in 2016. The band is based in Southampton.

***************

Jadis - Somersault (1997) {Japan 1st Press}

Jadis - Somersault (1997) {Japan 1st Press}

Track List:

01. Live This Life [0:08:35.10]
02. Batstein [0:06:51.70]
03. Speechless [0:05:30.57]
04. Losing My Fear [0:06:08.35]
05. Tomorrow Always Arrives [0:04:30.13]
06. Falling Away [0:06:53.03]
07. Hear Us [0:09:35.58]
08. This Changing Face [bonus track] [0:05:26.50]
09. In the Dark [bonus track] [0:04:01.03]

Personnel:
Gary Chandler - guitar,s lead & backing vocals
Mike Torr - keyboards, backing vocals
Steve Hunt - bass
Steve Christey - drums, percussion

With:
Josien Obers - backing vocals

Exact Audio Copy V1.3 from 2. September 2016

EAC extraction logfile from 30. September 2019, 17:21

Jadis / Somersault [MICY-1017]

Used drive : HL-DT-STBD-RE BH10LS38 Adapter: 1 ID: 0

Read mode : Secure
Utilize accurate stream : Yes
Defeat audio cache : Yes
Make use of C2 pointers : No

Read offset correction : 667
Overread into Lead-In and Lead-Out : No
Fill up missing offset samples with silence : Yes
Delete leading and trailing silent blocks : No
Null samples used in CRC calculations : Yes
Used interface : Native Win32 interface for Win NT & 2000

Used output format : User Defined Encoder
Selected bitrate : 128 kBit/s
Quality : High
Add ID3 tag : No
Command line compressor : C:\Program Files (x86)\Exact Audio Copy\Flac\flac.exe
Additional command line options : -V -8 -T "Date=%year%" -T "Genre=%genre%" %source%


TOC of the extracted CD

Track | Start | Length | Start sector | End sector
––––––––––––––––––––––––––––-
1 | 0:00.00 | 8:35.10 | 0 | 38634
2 | 8:35.10 | 6:51.70 | 38635 | 69529
3 | 15:27.05 | 5:30.57 | 69530 | 94336
4 | 20:57.62 | 6:08.35 | 94337 | 121971
5 | 27:06.22 | 4:30.13 | 121972 | 142234
6 | 31:36.35 | 6:53.03 | 142235 | 173212
7 | 38:29.38 | 9:35.58 | 173213 | 216395
8 | 48:05.21 | 5:26.50 | 216396 | 240895
9 | 53:31.71 | 4:01.03 | 240896 | 258973


Range status and errors

Selected range

Filename D:\Rips by Alder\Jadis - Somersault [MICY-1017].wav

Peak level 100.0 %
Extraction speed 8.0 X
Range quality 100.0 %
Test CRC 0788DF50
Copy CRC 0788DF50
Copy OK

No errors occurred


AccurateRip summary

Track 1 accurately ripped (confidence 1) [3401756B] (AR v2)
Track 2 accurately ripped (confidence 1) [8323E3CB] (AR v2)
Track 3 accurately ripped (confidence 1) [1EB5217B] (AR v2)
Track 4 accurately ripped (confidence 1) [DEFDABD5] (AR v2)
Track 5 accurately ripped (confidence 1) [A1FE0230] (AR v2)
Track 6 accurately ripped (confidence 1) [4E69C1F6] (AR v2)
Track 7 accurately ripped (confidence 1) [8DED5B9C] (AR v2)
Track 8 accurately ripped (confidence 1) [3537383D] (AR v2)
Track 9 accurately ripped (confidence 1) [3BD9446B] (AR v2)

All tracks accurately ripped

End of status report

–– CUETools DB Plugin V2.1.6

[CTDB TOCID: bzKsJu9o1lggd8saPaGdxPmiDrM-] found
Submit result: bzKsJu9o1lggd8saPaGdxPmiDrM- has been confirmed
Track | CTDB Status
1 | (2/2) Accurately ripped
2 | (2/2) Accurately ripped
3 | (2/2) Accurately ripped
4 | (2/2) Accurately ripped
5 | (2/2) Accurately ripped
6 | (2/2) Accurately ripped
7 | (2/2) Accurately ripped
8 | (2/2) Accurately ripped
9 | (2/2) Accurately ripped


==== Log checksum 1916AAE8F37045A069E35947D8853452C79D03D73822F1C651AB23BD5CBBB4D1 ====

[CUETools log; Date: 05.10.2019 13:35:07; Version: 2.1.6]
[CTDB TOCID: bzKsJu9o1lggd8saPaGdxPmiDrM-] found.
Track | CTDB Status
1 | (3/3) Accurately ripped
2 | (3/3) Accurately ripped
3 | (3/3) Accurately ripped
4 | (3/3) Accurately ripped
5 | (3/3) Accurately ripped
6 | (3/3) Accurately ripped
7 | (3/3) Accurately ripped
8 | (3/3) Accurately ripped
9 | (3/3) Accurately ripped
[AccurateRip ID: 0014b19c-0095f666-880d7c09] found.
Track [ CRC | V2 ] Status
01 [11882e1b|3401756b] (0+1/1) Accurately ripped
02 [9d850bb4|8323e3cb] (0+1/1) Accurately ripped
03 [4160d79d|1eb5217b] (0+1/1) Accurately ripped
04 [79c4dcb5|defdabd5] (0+1/1) Accurately ripped
05 [3de43e70|a1fe0230] (0+1/1) Accurately ripped
06 [5b6cad74|4e69c1f6] (0+1/1) Accurately ripped
07 [42f1cac5|8ded5b9c] (0+1/1) Accurately ripped
08 [3848a434|3537383d] (0+1/1) Accurately ripped
09 [c1845a73|3bd9446b] (0+1/1) Accurately ripped

Track Peak [ CRC32 ] [W/O NULL] [ LOG ]
– 100,0 [0788DF50] [58DB7EA0] CRC32
01 94,7 [797B0B19] [DF6A80C6]
02 98,0 [0FA821D5] [048706F1]
03 97,2 [6462ABF8] [98140F91]
04 96,6 [580F6FD0] [21A9E68B]
05 96,4 [717EEB30] [0CA13193]
06 100,0 [47C134BE] [5FB40888]
07 96,1 [DA7B1BD7] [5A487283]
08 94,4 [F58B4BB3] [569D93FE]
09 94,4 [864D9221] [E7B85212]

Jadis - Somersault (1997) {Japan 1st Press}