Subcategories
Tags
Language
Tags

The World Heritage - The Land Of Light (2016) {Japan}

Posted By: popsakov
The World Heritage - The Land Of Light (2016) {Japan}

The World Heritage - The Land Of Light (2016) {Japan}
EAC Rip | WavPack (Img) + Cue + Log ~ 484 Mb | MP3 CBR320 ~ 178 Mb
Full Scans ~ 148 Mb | 01:13:46 | RAR 5% Recovery
Avant-Garde / Jazz Rock / Progressive Rock / Experimental
Magaibutsu Limited #MGC-50

The World Heritage is a Japanese supergroup gathered and guided by master drummer Yoshida Tatsuya. The group is Kido Natsuki (Bondage Fruit) and Yamamoto Seiichi (Boredoms) on guitar, Nasuno Mitsuri (Altered States) on bass, Katsui Yuji (Bondage Fruit, etc) on violin, and Yoshida Tatsuya (Ruins, Koenjihyakkei, Korekyojinn, etc) on drums. Tatsuya, Mitsuri and Natsuki had previously played together as Korekyojinn, the mammoth power trio.

This group performs mostly high-energy improvised rock with some jazzy tinges, as well as some pieces composed by Tatsuya. All of the music is very energetic and often chaotic. Almost all of the band's material has been recorded live, with only a small handful of tracks being recorded in studio. The band would appeal to fans of other Tatsuya bands, in particular fans of Korekyojinn, Daimonji or Ruins.

~ Prog Archives
The World Heritage - The Land Of Light (2016) {Japan}


***************

The World Heritage - The Land Of Light (2016) {Japan}

The World Heritage - The Land Of Light (2016) {Japan}

Track List:

01. Kekova [10:13]
02. Cyaneai [9:31]
03. Pinara [10:35]
04. Sidyma [8:35]
05. Xanthos [10:24]
06. Letoon [7:01]
07. Patara [10:17]
08. Ucagiz [7:10]

Recorded live at Akihabara GOODMAN, 18th october 2013.

Personnel:
Kido Natsuki - Guitar
Nasuno Mitsuru - Bass
Yoshida Tatsuya - Drums
Katsui Yuji - Violin
Yamamoto Seiichi - Guitar

Exact Audio Copy V1.2 from 12. August 2016

EAC extraction logfile from 8. July 2017, 13:01

The World Heritage / The Land of Light

Used drive : PIONEER DVD-RW DVR-220RS Adapter: 1 ID: 1

Read mode : Secure
Utilize accurate stream : Yes
Defeat audio cache : Yes
Make use of C2 pointers : No

Read offset correction : 6
Overread into Lead-In and Lead-Out : No
Fill up missing offset samples with silence : Yes
Delete leading and trailing silent blocks : No
Null samples used in CRC calculations : Yes
Used interface : Native Win32 interface for Win NT & 2000

Used output format : User Defined Encoder
Selected bitrate : 768 kBit/s
Quality : High
Add ID3 tag : No
Command line compressor : C:\Program Files (x86)\Exact Audio Copy\Wavpack\wavpack.exe
Additional command line options : -hm %source% %dest%


TOC of the extracted CD

Track | Start | Length | Start sector | End sector
––––––––––––––––––––––––––––-
1 | 0:00.00 | 10:12.53 | 0 | 45952
2 | 10:12.53 | 9:31.00 | 45953 | 88777
3 | 19:43.53 | 10:35.08 | 88778 | 136410
4 | 30:18.61 | 8:34.44 | 136411 | 175004
5 | 38:53.30 | 10:24.18 | 175005 | 221822
6 | 49:17.48 | 7:01.27 | 221823 | 253424
7 | 56:19.00 | 10:17.22 | 253425 | 299721
8 | 66:36.22 | 7:10.02 | 299722 | 331973


Range status and errors

Selected range

Filename C:\_NL+_\_CD\The World Heritage - The Land of Light.wav

Peak level 100.0 %
Extraction speed 6.4 X
Range quality 99.9 %
Test CRC D3849BA3
Copy CRC D3849BA3
Copy OK

No errors occurred


AccurateRip summary

Track 1 not present in database
Track 2 not present in database
Track 3 not present in database
Track 4 not present in database
Track 5 not present in database
Track 6 not present in database
Track 7 not present in database
Track 8 not present in database

None of the tracks are present in the AccurateRip database

End of status report

–– CUETools DB Plugin V2.1.6

[CTDB TOCID: 4LVYP36EuaA4OJlVCAYD3pbnPSg-] disk not present in database
Submit result: 4LVYP36EuaA4OJlVCAYD3pbnPSg- has been uploaded


==== Log checksum 9AD8C4357E2A58D927436ED4E04BC582D210F081F8FB1BA50863201F22C11B44 ====

The World Heritage - The Land Of Light (2016) {Japan}


See also:

The World Heritage - Icomos (2006) {Japan}

All thanks go to tatuk

>>> My Blog <<<

DOWNLOAD: