Tags
Language
Tags

Los lobos / The Wolves (2019)

Posted By: Without
1080p (FullHD) / WEB-DL IMDb
Los lobos / The Wolves (2019)

Los lobos / The Wolves (2019)
WEB-DL 1080p | MKV | 1 h 35 min | 5.72 GB | 1920x1080 | AVC@8217 kb/s
Español AC3@384 kb/s, 2 ch
Subs: English, Español
Genre: Drama

Two children emigrate to the US with their mother. Their days pass in a tiny flat waiting for her to come back as they hold on to the hope of visiting Disneyworld.

IMDB - 6 wins & 4 nominations.


General
Los.Lobos.2019.SPANISH.1080p.HMAX.WEB-DL.DD2.0.H.264-alfaHD.mkv
Format : Matroska
Format version : Version 4 / Version 2
File size : 5.72 GB
Duration : 1 h 35 min
Overall bit rate mode : Variable
Overall bit rate : 8603 kb/s
Encoded date : UTC 2020-08-01 13:19:50
Writing application : mkvmerge v41.0.0 ('Smarra') 64-bit
Writing library : libebml v1.3.9 + libmatroska v1.5.2

Video
ID : 1
Format : AVC
Format/Info : Advanced Video Codec
Format profile : High@L4
Format settings, CABAC : Yes
Format settings, ReFrames : 4 frames
Format settings, GOP : M=4, N=48
Codec ID : V_MPEG4/ISO/AVC
Duration : 1 h 35 min
Bit rate mode : Variable
Bit rate : 8217 kb/s
Maximum bit rate : 12.4 Mb/s
Width : 1920 pixels
Height : 1080 pixels
Display aspect ratio : 16:9
Frame rate mode : Constant
Frame rate : 23.976 (24000/1001) FPS
Color space : YUV
Chroma subsampling : 4:2:0
Bit depth : 8 bits
Scan type : Progressive
Bits/(Pixel*Frame) : 0.165
Stream size : 5.46 GB (96%)
Default : Yes
Forced : No

Audio
ID : 2
Format : AC-3
Format/Info : Audio Coding 3
Mode extension : CM (complete main)
Format settings, Endianness : Big
Codec ID : A_AC3
Duration : 1 h 35 min
Bit rate mode : Constant
Bit rate : 384 kb/s
Channel(s) : 2 channels
Channel positions : Front: L R
Sampling rate : 48.0 kHz
Frame rate : 31.250 FPS (1536 spf)
Bit depth : 16 bits
Compression mode : Lossy
Stream size : 261 MB (4%)
Language : Spanish
Default : Yes
Forced : No

Text #1
ID : 3
Format : UTF-8
Codec ID : S_TEXT/UTF8
Codec ID/Info : UTF-8 Plain Text
Duration : 1 h 30 min
Bit rate : 27 b/s
Count of elements : 778
Stream size : 18.2 KiB (0%)
Title : Español
Language : Spanish
Default : No
Forced : No

Text #2
ID : 4
Format : UTF-8
Codec ID : S_TEXT/UTF8
Codec ID/Info : UTF-8 Plain Text
Duration : 1 h 29 min
Bit rate : 18 b/s
Count of elements : 508
Stream size : 12.5 KiB (0%)
Language : English
Default : Yes
Forced : No



WEB-DL 1080p Screenshots

Los lobos / The Wolves (2019)

Los lobos / The Wolves (2019)

Los lobos / The Wolves (2019)

Los lobos / The Wolves (2019)

Los lobos / The Wolves (2019)


Come Visit My Blog (•‿•)